<?xml version="1.0" standalone="no"?>
<!DOCTYPE svg PUBLIC "-//W3C//DTD SVG 1.1//EN" "http://www.w3.org/Graphics/SVG/1.1/DTD/svg11.dtd" >
<svg xmlns="http://www.w3.org/2000/svg" xmlns:xlink="http://www.w3.org/1999/xlink" version="1.1">
<metadata>
Created by FontForge 20190801 at Sun Jul 10 09:13:29 2016
 By www-data
(c) Copyright David Jonathan Ross, 2016. All rights reserved.
</metadata>
<defs>
<font id="OutputSansLight" horiz-adv-x="566" >
  <font-face 
    font-family="OutputSansLight"
    font-weight="300"
    font-stretch="semi-condensed"
    units-per-em="1000"
    panose-1="0 0 0 0 0 0 0 2 0 0"
    ascent="761"
    descent="-239"
    x-height="522"
    cap-height="696"
    bbox="-168 -236 1036 1154"
    underline-thickness="0"
    underline-position="0"
    unicode-range="U+0020-FEFF"
  />
<missing-glyph horiz-adv-x="667" 
d="M51 -217v957h565v-957h-565zM117 -152h433v827h-433v-827z" />
    <glyph glyph-name=".notdef" horiz-adv-x="667" 
d="M51 -217v957h565v-957h-565zM117 -152h433v827h-433v-827z" />
    <glyph glyph-name=".null" horiz-adv-x="0" 
 />
    <glyph glyph-name="nonmarkingreturn" horiz-adv-x="333" 
 />
    <glyph glyph-name="space" unicode=" " horiz-adv-x="274" 
 />
    <glyph glyph-name="space" unicode="&#xa0;" horiz-adv-x="274" 
 />
    <glyph glyph-name="exclam" unicode="!" horiz-adv-x="335" 
d="M148 203l-16 493h71l-16 -493h-39zM168 -6q-47 0 -47 51q0 23 12 37.5t35 14.5t35 -14.5t12 -37.5q0 -51 -47 -51z" />
    <glyph glyph-name="quotedbl" unicode="&#x22;" horiz-adv-x="375" 
d="M251 474l-16 222h69l-15 -222h-38zM86 474l-16 222h69l-15 -222h-38z" />
    <glyph glyph-name="numbersign" unicode="#" horiz-adv-x="746" 
d="M449 234l10 229h-161l-9 -229h160zM438 0l9 184h-161l-10 -184h-48l8 184h-145v50h148l10 229h-158v49h160l8 184h50l-8 -184h160l10 184h48l-8 -184h143v-49h-146l-9 -229h155v-50h-158l-8 -184h-50z" />
    <glyph glyph-name="dollar" unicode="$" horiz-adv-x="586" 
d="M139 501q0 -41 29 -65.5t104 -49.5v222q-133 -5 -133 -107zM451 196q0 46 -31.5 73t-108.5 52v-237q65 2 102.5 32.5t37.5 79.5zM317 -52h-51v91q-112 8 -181 61l20 43q74 -53 167 -59v249q-102 30 -142.5 66t-40.5 99q0 70 45 110.5t132 47.5v86h51v-86q94 -5 163 -49
q-1 -3 -3.5 -7.5t-7 -15t-7.5 -17t-2 -6.5q-67 42 -149 47v-234q103 -31 146.5 -70t43.5 -104q0 -68 -48.5 -110.5t-135.5 -49.5v-92z" />
    <glyph glyph-name="percent" unicode="%" horiz-adv-x="869" 
d="M221 338q-142 0 -142 186q0 181 142 181q140 0 140 -178q0 -189 -140 -189zM210 0l400 696h55l-399 -696h-56zM221 383q90 0 90 142q0 136 -90 136q-93 0 -93 -137q0 -141 93 -141zM649 -11q-140 0 -140 184q0 183 140 183q142 0 142 -180q0 -187 -142 -187zM649 34
q45 0 68.5 32t23.5 107q0 138 -92 138q-91 0 -91 -138q0 -75 23 -107t68 -32z" />
    <glyph glyph-name="ampersand" unicode="&#x26;" horiz-adv-x="674" 
d="M221 527q0 -60 26 -124q172 69 172 166q0 44 -25 66t-66 22q-49 0 -78 -37.5t-29 -92.5zM270 40q86 0 155 73q-134 102 -204 231q-104 -59 -104 -162q0 -71 40 -106.5t113 -35.5zM628 -1q-81 31 -164 86q-85 -94 -194 -94q-98 0 -153 47.5t-55 143.5q0 131 139 201
q-34 76 -34 144q0 77 45 128t116 51q62 0 102.5 -33.5t40.5 -97.5q0 -38 -17 -70t-49 -58t-63.5 -44t-76.5 -38q64 -120 191 -214q54 75 93 204l48 -14q-41 -133 -102 -218q72 -46 149 -76z" />
    <glyph glyph-name="quotesingle" unicode="'" horiz-adv-x="275" 
d="M119 474l-16 222h69l-15 -222h-38z" />
    <glyph glyph-name="parenleft" unicode="(" horiz-adv-x="434" 
d="M342 -183q-128 33 -201 149t-73 295t73 295.5t201 148.5l7 -48q-110 -33 -167.5 -136t-57.5 -260t57.5 -260t167.5 -135z" />
    <glyph glyph-name="parenright" unicode=")" horiz-adv-x="434" 
d="M352 261q0 -179 -73 -295t-201 -149l-7 49q110 32 167.5 135t57.5 260t-57.5 260t-167.5 136l7 48q128 -32 201 -148.5t73 -295.5z" />
    <glyph glyph-name="asterisk" unicode="*" horiz-adv-x="491" 
d="M398 364l-140 108l10 -176h-46l10 176l-142 -108l-23 41l156 91l-156 90l23 42l142 -109l-10 177h46l-10 -177l141 109l24 -42l-155 -90l155 -91z" />
    <glyph glyph-name="plus" unicode="+" horiz-adv-x="626" 
d="M290 49v233h-203v46h203v233h46v-233h203v-46h-203v-233h-46z" />
    <glyph glyph-name="comma" unicode="," horiz-adv-x="301" 
d="M73 -124q25 72 35 113.5t16 111.5h70q-10 -73 -29 -122t-50 -103h-42z" />
    <glyph glyph-name="hyphen" unicode="-" horiz-adv-x="519" 
d="M84 282v47h350v-47h-350z" />
    <glyph glyph-name="hyphen" unicode="&#x2011;" horiz-adv-x="519" 
d="M84 282v47h350v-47h-350z" />
    <glyph glyph-name="hyphen" unicode="&#x2010;" horiz-adv-x="519" 
d="M84 282v47h350v-47h-350z" />
    <glyph glyph-name="hyphen" unicode="&#xad;" horiz-adv-x="519" 
d="M84 282v47h350v-47h-350z" />
    <glyph glyph-name="period" unicode="." horiz-adv-x="301" 
d="M150 -6q-23 0 -37.5 15t-14.5 40q0 23 14.5 38t37.5 15q24 0 38.5 -15t14.5 -38q0 -25 -14.5 -40t-38.5 -15z" />
    <glyph glyph-name="slash" unicode="/" horiz-adv-x="476" 
d="M51 -174l320 870h54l-319 -870h-55z" />
    <glyph glyph-name="zero" unicode="0" horiz-adv-x="626" 
d="M313 -9q-111 0 -175 89t-64 276q0 177 64.5 263t175.5 86q110 0 174 -86t64 -263q0 -187 -64 -276t-175 -89zM313 41q88 0 135.5 73t47.5 242q0 299 -183 299t-183 -299q0 -169 47.5 -242t135.5 -73z" />
    <glyph glyph-name="one" unicode="1" horiz-adv-x="626" 
d="M117 0v50h203v546q-20 -56 -78.5 -92t-128.5 -38l-6 55q85 2 143.5 49.5t70.5 125.5h55v-646h184v-50h-443z" />
    <glyph glyph-name="two" unicode="2" horiz-adv-x="626" 
d="M103 0v100q0 87 50.5 141.5t157.5 108.5q98 50 131 86t33 89q0 59 -40.5 94.5t-107.5 35.5q-75 0 -116.5 -37t-56.5 -122l-55 7q28 202 227 202q91 0 147.5 -49.5t56.5 -130.5q0 -68 -45 -118.5t-147 -101.5q-100 -50 -139.5 -93.5t-39.5 -111.5v-50h379v-50h-435z" />
    <glyph glyph-name="three" unicode="3" horiz-adv-x="626" 
d="M317 -9q-202 0 -241 179l58 17q19 -82 63 -114.5t120 -32.5q80 0 124.5 39t44.5 119q0 76 -39.5 112t-135.5 36h-98v49h99q88 0 123.5 29.5t35.5 95.5q0 68 -44.5 102.5t-115.5 34.5q-72 0 -109 -30.5t-54 -102.5l-56 15q40 166 219 166q93 0 154 -47.5t61 -137.5
q0 -65 -36 -104t-106 -44q78 -7 118.5 -55.5t40.5 -118.5q0 -100 -61 -153.5t-165 -53.5z" />
    <glyph glyph-name="four" unicode="4" horiz-adv-x="626" 
d="M568 192h-122v-192h-56v192h-321v49l302 456h75v-456h122v-49zM126 241h264v399z" />
    <glyph glyph-name="five" unicode="5" horiz-adv-x="626" 
d="M318 -9q-101 0 -155 46t-74 149l56 7q16 -82 55.5 -117t117.5 -35q80 0 123.5 48.5t43.5 135.5q0 178 -170 178q-105 0 -152 -62h-51v355h396v-49h-340v-248q59 56 152 56q105 0 163.5 -58t58.5 -172q0 -106 -61.5 -170t-162.5 -64z" />
    <glyph glyph-name="six" unicode="6" horiz-adv-x="626" 
d="M548 220q0 -108 -60 -169t-173 -61q-111 0 -171.5 67t-60.5 183v188q0 135 58.5 206t172.5 71q92 0 144.5 -39t76.5 -116l-61 -15q-22 63 -57 91.5t-104 28.5q-90 0 -132 -55t-42 -172v-89q54 96 190 96q100 0 159.5 -57.5t59.5 -157.5zM139 221q0 -85 44 -133t131 -48
q89 0 133 45.5t44 128.5q0 82 -44.5 126.5t-131.5 44.5q-86 0 -131 -43t-45 -121z" />
    <glyph glyph-name="seven" unicode="7" horiz-adv-x="626" 
d="M257 0q43 230 82.5 352.5t138.5 287.5h-397v56h454v-56q-73 -129 -116.5 -241t-61.5 -189.5t-39 -209.5h-61z" />
    <glyph glyph-name="eight" unicode="8" horiz-adv-x="626" 
d="M313 -10q-107 0 -169.5 52t-62.5 143q0 77 43.5 126t119.5 56q-69 6 -107.5 48t-38.5 108q0 85 57.5 133.5t157.5 48.5t157.5 -48.5t57.5 -133.5q0 -66 -38.5 -108t-107.5 -48q76 -7 119.5 -56t43.5 -126q0 -91 -62.5 -143t-169.5 -52zM153 520q0 -63 41.5 -96.5
t119.5 -33.5t118.5 33.5t40.5 96.5q0 137 -160 137t-160 -137zM137 189q0 -150 176 -150t176 150q0 74 -44.5 112.5t-130.5 38.5q-87 0 -132 -38.5t-45 -112.5z" />
    <glyph glyph-name="nine" unicode="9" horiz-adv-x="626" 
d="M135 481q0 -81 44.5 -125.5t131.5 -44.5q86 0 131 43t45 121q0 85 -44 132.5t-131 47.5q-89 0 -133 -45.5t-44 -128.5zM312 -10q-92 0 -144.5 39t-76.5 116l61 16q22 -63 57 -92t104 -29q90 0 132 55.5t42 171.5v89q-55 -96 -190 -96q-100 0 -159.5 58t-59.5 158
q0 107 60.5 168t172.5 61q111 0 171.5 -67t60.5 -183v-188q0 -135 -58.5 -206t-172.5 -71z" />
    <glyph glyph-name="colon" unicode=":" horiz-adv-x="301" 
d="M150 329q-23 0 -37 14.5t-14 39.5q0 24 14 39t37 15q24 0 38.5 -15t14.5 -39q0 -25 -14.5 -39.5t-38.5 -14.5zM150 -6q-23 0 -37 15t-14 40q0 23 14 38t37 15q24 0 38.5 -14.5t14.5 -38.5q0 -25 -14.5 -40t-38.5 -15z" />
    <glyph glyph-name="semicolon" unicode=";" horiz-adv-x="301" 
d="M150 329q-23 0 -37 14.5t-14 39.5q0 24 14 39t37 15q24 0 38.5 -15t14.5 -39q0 -25 -14.5 -39.5t-38.5 -14.5zM73 -124q24 68 32 104t16 121h76q-3 -23 -7 -42.5t-7 -34t-9.5 -31t-9 -24.5t-11 -24.5t-11 -21t-14 -24t-13.5 -23.5h-42z" />
    <glyph glyph-name="less" unicode="&#x3c;" horiz-adv-x="626" 
d="M541 48l-457 234v46l457 234l1 -53l-404 -204l404 -204z" />
    <glyph glyph-name="equal" unicode="=" horiz-adv-x="626" 
d="M87 411v47h452v-47h-452zM87 151v48h452v-48h-452z" />
    <glyph glyph-name="greater" unicode="&#x3e;" horiz-adv-x="626" 
d="M85 48l-1 53l403 204l-403 204l1 53l457 -234v-46z" />
    <glyph glyph-name="question" unicode="?" horiz-adv-x="537" 
d="M255 196h-46l-2 142q124 17 174 59.5t50 112.5q0 65 -46 105t-123 40q-125 0 -183 -107l-42 31q68 126 225 126q101 0 163 -54t62 -144q0 -170 -230 -205zM233 -6q-47 0 -47 51q0 23 12 37.5t35 14.5t35 -14.5t12 -37.5q0 -51 -47 -51z" />
    <glyph glyph-name="at" unicode="@" horiz-adv-x="937" 
d="M529 -172q-196 0 -314 114.5t-118 321.5q0 212 102.5 331.5t270.5 119.5q164 0 267 -117.5t103 -307.5q0 -109 -34 -173t-107 -64q-88 0 -118 90q-64 -89 -150 -89q-60 0 -98.5 50.5t-38.5 140.5q0 113 52.5 174.5t135.5 61.5q67 0 133 -28v-190q0 -83 20 -122t66 -40
q48 -1 70 49.5t22 139.5q0 174 -88.5 277t-236.5 103q-150 0 -237 -104.5t-87 -301.5q0 -187 104 -288t281 -101v-47zM439 102q75 0 131 86q-5 37 -5 74v155q-43 17 -84 18q-62 -1 -100 -49.5t-38 -140.5q0 -71 26.5 -107t69.5 -36z" />
    <glyph glyph-name="A" unicode="A" horiz-adv-x="620" 
d="M432 269l-123 364l-122 -364h245zM522 0l-74 221h-277l-74 -221h-57l244 697h53l244 -697h-59z" />
    <glyph glyph-name="B" unicode="B" horiz-adv-x="626" 
d="M90 0v696h240q93 0 145 -46t52 -127q0 -61 -30.5 -102t-91.5 -51q78 -7 119.5 -53.5t41.5 -119.5q0 -91 -55 -144t-156 -53h-265zM145 647v-260h188q140 0 140 130t-147 130h-181zM145 339v-290h204q160 0 160 148q0 142 -160 142h-204z" />
    <glyph glyph-name="C" unicode="C" horiz-adv-x="620" 
d="M324 -9q-120 0 -190 90t-70 274q0 176 70.5 263t190.5 87q98 0 159 -54t76 -148l-54 -12q-28 164 -182 164q-204 0 -204 -300q0 -314 204 -314q159 0 183 158l53 -11q-12 -89 -74 -143t-162 -54z" />
    <glyph glyph-name="D" unicode="D" horiz-adv-x="655" 
d="M95 0v696h213q129 0 206 -83.5t77 -260.5q0 -183 -77.5 -267.5t-206.5 -84.5h-212zM150 50h157q229 0 229 302q0 155 -61.5 225t-167.5 70h-157v-597z" />
    <glyph glyph-name="E" unicode="E" horiz-adv-x="569" 
d="M95 0v696h418v-49h-363v-246h324v-49h-324v-303h363v-49h-418z" />
    <glyph glyph-name="F" unicode="F" horiz-adv-x="548" 
d="M95 0v696h409v-49h-354v-259h302v-49h-302v-339h-55z" />
    <glyph glyph-name="G" unicode="G" horiz-adv-x="637" 
d="M575 291q0 -155 -66.5 -227.5t-183.5 -72.5q-121 0 -191 90t-70 275q0 176 70.5 262.5t191.5 86.5q93 0 151.5 -44.5t77.5 -121.5l-54 -15q-34 131 -176 131q-205 0 -205 -299q0 -315 205 -315q96 0 145 58t49 195v8h-202v50h258v-61z" />
    <glyph glyph-name="H" unicode="H" horiz-adv-x="654" 
d="M95 0v696h55v-296h354v296h56v-696h-56v352h-354v-352h-55z" />
    <glyph glyph-name="I" unicode="I" horiz-adv-x="428" 
d="M47 0v49h139v598h-139v49h334v-49h-139v-598h139v-49h-334z" />
    <glyph glyph-name="J" unicode="J" horiz-adv-x="536" 
d="M240 -9q-90 0 -147 57.5t-64 162.5l56 7q15 -177 157 -177q75 0 113.5 49t38.5 130v476h56v-475q0 -103 -55 -166.5t-155 -63.5z" />
    <glyph glyph-name="K" unicode="K" horiz-adv-x="588" 
d="M485 -1l-224 371l-111 -126v-244h-55v696h55v-380l335 380l61 -1l-248 -283l252 -411z" />
    <glyph glyph-name="L" unicode="L" horiz-adv-x="494" 
d="M95 0v696h55v-646h310v-50h-365z" />
    <glyph glyph-name="M" unicode="M" horiz-adv-x="757" 
d="M360 126l-212 456v-582h-53v697h57l230 -497l226 497h55v-697h-54v583l-210 -457h-39z" />
    <glyph glyph-name="N" unicode="N" horiz-adv-x="658" 
d="M563 -1h-66l-351 615v-614h-51v696h66l350 -614v614h52v-697z" />
    <glyph glyph-name="O" unicode="O" horiz-adv-x="650" 
d="M326 -9q-122 0 -192 88.5t-70 276.5q0 177 70.5 263t192.5 86q120 0 189.5 -86t69.5 -263q0 -188 -69 -276.5t-191 -88.5zM326 41q98 0 151 73t53 242q0 299 -204 299q-206 0 -206 -299q0 -169 53.5 -242t152.5 -73z" />
    <glyph glyph-name="P" unicode="P" horiz-adv-x="573" 
d="M95 0v696h187q109 0 174.5 -57.5t65.5 -172.5q0 -114 -65.5 -172.5t-174.5 -58.5h-132v-235h-55zM150 283h130q86 0 136 44.5t50 138.5t-50 137.5t-136 43.5h-130v-364z" />
    <glyph glyph-name="Q" unicode="Q" horiz-adv-x="650" 
d="M561 -167q-119 -24 -183 16t-68 142q-115 6 -180.5 95t-65.5 270q0 177 70.5 263t192.5 86q120 0 189.5 -86t69.5 -263q0 -335 -221 -363q10 -146 187 -110zM326 41q99 0 151.5 73t52.5 242q0 299 -204 299q-206 0 -206 -299q0 -169 53.5 -242t152.5 -73z" />
    <glyph glyph-name="R" unicode="R" horiz-adv-x="615" 
d="M150 326h184q74 0 115.5 43.5t41.5 115.5q0 76 -41.5 119t-115.5 43h-184v-321zM150 0h-55v696h241q99 0 155 -56.5t56 -154.5q0 -78 -47 -135t-127 -69l182 -281h-64l-180 278h-161v-278z" />
    <glyph glyph-name="S" unicode="S" horiz-adv-x="597" 
d="M306 -5q-175 0 -254 134l43 32q65 -117 211 -117q80 0 126.5 35t46.5 99q0 61 -42 93.5t-151 57.5t-157.5 69t-48.5 122q0 81 57.5 130.5t151.5 49.5q155 0 227 -123l-41 -31q-69 104 -188 104q-70 0 -111 -32.5t-41 -94.5q0 -58 37 -89.5t138 -54.5q118 -25 170.5 -71
t52.5 -126q0 -84 -63 -135.5t-164 -51.5z" />
    <glyph glyph-name="T" unicode="T" horiz-adv-x="545" 
d="M245 0v647h-213v49h481v-49h-212v-647h-56z" />
    <glyph glyph-name="U" unicode="U" horiz-adv-x="645" 
d="M322 -9q-111 0 -174 71.5t-63 182.5v451h56v-452q0 -90 45.5 -146.5t135.5 -56.5q91 0 136.5 56.5t45.5 146.5v452h56v-451q0 -111 -63 -182.5t-175 -71.5z" />
    <glyph glyph-name="V" unicode="V" horiz-adv-x="623" 
d="M338 -1h-53l-247 697h60l215 -633l215 633h57z" />
    <glyph glyph-name="W" unicode="W" horiz-adv-x="803" 
d="M554 0l-153 542l-152 -542h-57l-155 696h56l130 -619l154 545h49l156 -544l130 618h53l-155 -696h-56z" />
    <glyph glyph-name="X" unicode="X" horiz-adv-x="612" 
d="M498 0l-196 306l-190 -306h-63l223 353l-220 343h64l193 -300l188 300h62l-220 -347l224 -349h-65z" />
    <glyph glyph-name="Y" unicode="Y" horiz-adv-x="586" 
d="M321 0h-56v266l-238 430h63l205 -378l202 378h61l-237 -430v-266z" />
    <glyph glyph-name="Z" unicode="Z" horiz-adv-x="583" 
d="M523 0h-463v50l397 597h-397v49h463v-49l-399 -597h399v-50z" />
    <glyph glyph-name="bracketleft" unicode="[" horiz-adv-x="434" 
d="M88 -174v870h278v-49h-222v-772h222v-49h-278z" />
    <glyph glyph-name="backslash" unicode="\" horiz-adv-x="476" 
d="M371 -174l-320 870h55l319 -870h-54z" />
    <glyph glyph-name="bracketright" unicode="]" horiz-adv-x="434" 
d="M60 -174v49h220v772h-220v49h276v-870h-276z" />
    <glyph glyph-name="asciicircum" unicode="^" horiz-adv-x="746" 
d="M582 184l-209 448l-209 -448l-53 1l238 511h48l237 -511z" />
    <glyph glyph-name="underscore" unicode="_" horiz-adv-x="626" 
d="M87 -167v48h452v-48h-452z" />
    <glyph glyph-name="grave" unicode="`" horiz-adv-x="285" 
d="M204 472h-40q-2 4 -7 12q-22 37 -32 57.5t-22 60.5t-20 94h71q4 -44 7.5 -69.5t11 -54.5t11.5 -41t20 -59z" />
    <glyph glyph-name="a" unicode="a" horiz-adv-x="531" 
d="M225 38q83 0 146 72v132h-151q-49 0 -79 -25.5t-30 -74.5t31 -76.5t83 -27.5zM503 -1q-47 -11 -81 11t-35 64q-75 -84 -174 -84q-67 0 -111.5 39.5t-44.5 108.5t44 109.5t118 40.5h152v71q0 61 -31.5 93t-90.5 32q-50 0 -80.5 -21.5t-51.5 -70.5l-46 24q50 116 183 116
q77 0 124 -44t47 -120v-260q0 -40 21 -55.5t57 -4.5v-49z" />
    <glyph glyph-name="b" unicode="b" horiz-adv-x="558" 
d="M286 -9q-81 0 -138 36v-27h-53v716h55v-285q69 101 163 101q80 0 130 -67t50 -195q0 -142 -58 -210.5t-149 -68.5zM277 41q160 2 160 229q0 209 -140 209q-85 0 -147 -99v-301q53 -37 127 -38z" />
    <glyph glyph-name="c" unicode="c" horiz-adv-x="516" 
d="M275 -9q-99 0 -154.5 67.5t-55.5 203.5q0 133 56 201.5t155 68.5q143 0 185 -145l-51 -16q-33 111 -136 111q-152 0 -152 -220q0 -221 152 -221q52 0 85.5 25.5t50.5 84.5l51 -16q-43 -144 -186 -144z" />
    <glyph glyph-name="d" unicode="d" horiz-adv-x="558" 
d="M280 482q-159 -2 -159 -230q0 -208 140 -208q87 0 147 98v301q-55 38 -128 39zM273 532q74 0 135 -37v221h56v-716h-55v92q-66 -101 -164 -101q-80 0 -130 66.5t-50 194.5q0 142 58 211t150 69z" />
    <glyph glyph-name="e" unicode="e" horiz-adv-x="533" 
d="M277 484q-141 0 -154 -184h295v4q-1 90 -39.5 135t-101.5 45zM462 73q-26 -40 -72.5 -61t-100.5 -21q-106 0 -165 70t-59 202q0 133 56.5 201t156.5 68q85 0 140.5 -62t55.5 -172v-45h-352q4 -212 167 -212q87 0 137 67z" />
    <glyph glyph-name="f" unicode="f" horiz-adv-x="394" 
d="M147 0v473h-109v49h109v49q0 91 66.5 125t149.5 4l-12 -45q-33 10 -66 11.5t-57.5 -22.5t-24.5 -72v-50h155v-49h-155v-473h-56z" />
    <glyph glyph-name="g" unicode="g" horiz-adv-x="563" 
d="M273 254q55 0 89.5 29t34.5 84t-34.5 84t-88.5 29t-89 -29t-35 -84t34.5 -84t88.5 -29zM521 -23q0 -75 -67 -119.5t-182 -44.5q-105 0 -157.5 34.5t-52.5 89.5q0 76 87 116q-68 24 -68 90q0 35 20 63.5t54 41.5q-55 46 -55 121q0 69 49 113t124 44q25 0 44 -4h187v-45
q-65 3 -112 12q57 -44 57 -120q0 -71 -49.5 -116t-128.5 -45q-50 0 -89 22q-53 -26 -53 -72q0 -62 88 -62h162q67 0 104.5 -31t37.5 -88zM282 -140q88 0 138 29.5t50 81.5q0 72 -91 72h-164q-19 0 -28 1q-73 -40 -73 -96q0 -88 168 -88z" />
    <glyph glyph-name="h" unicode="h" 
d="M150 0h-55v716h55v-297q72 113 174 113q71 0 112.5 -47t41.5 -127v-358h-56v346q0 64 -30 98.5t-83 34.5q-96 0 -159 -112v-367z" />
    <glyph glyph-name="i" unicode="i" horiz-adv-x="244" 
d="M122 632q-42 0 -42 39q0 41 42 41t42 -41q0 -39 -42 -39zM94 0v522h56v-522h-56z" />
    <glyph glyph-name="j" unicode="j" horiz-adv-x="269" 
d="M141 631q-41 0 -41 41q0 40 41 40q42 0 42 -41q0 -40 -42 -40zM36 -181q-34 0 -87 17l13 51q44 -17 70 -17q81 0 81 93v559h56v-557q0 -72 -37 -109t-96 -37z" />
    <glyph glyph-name="k" unicode="k" horiz-adv-x="508" 
d="M415 -1l-166 266l-99 -119v-146h-55v716h55v-501l251 308l62 -2l-178 -213l191 -307z" />
    <glyph glyph-name="l" unicode="l" horiz-adv-x="244" 
d="M95 0v716h55v-716h-55z" />
    <glyph glyph-name="m" unicode="m" horiz-adv-x="843" 
d="M150 382v-382h-55v522h55v-89q72 99 169 99q49 0 82.5 -28.5t44.5 -78.5q78 107 177 107q61 0 97 -43t36 -116v-373h-56v360q0 58 -24.5 88.5t-68.5 30.5q-89 0 -154 -97v-382h-56v360q0 58 -24.5 88.5t-68.5 30.5q-89 0 -154 -97z" />
    <glyph glyph-name="n" unicode="n" 
d="M150 0h-56v522h56v-104q71 114 175 114q70 0 111.5 -47t41.5 -127v-358h-56v345q0 64 -30 99t-83 35q-96 0 -159 -112v-367z" />
    <glyph glyph-name="o" unicode="o" horiz-adv-x="541" 
d="M270 -9q-96 0 -150.5 67.5t-54.5 202.5q0 134 55 202.5t151 68.5q94 0 149.5 -69t55.5 -203t-55 -201.5t-151 -67.5zM270 41q149 0 149 219q0 222 -149 222q-148 0 -148 -221q0 -220 148 -220z" />
    <glyph glyph-name="p" unicode="p" horiz-adv-x="558" 
d="M277 41q160 2 160 229q0 209 -140 209q-87 0 -147 -99v-301q53 -37 127 -38zM286 -9q-80 0 -136 36v-201h-55v696h53v-91q68 101 165 101q80 0 130 -67t50 -195q0 -142 -58 -210.5t-149 -68.5z" />
    <glyph glyph-name="q" unicode="q" horiz-adv-x="558" 
d="M272 532q76 0 138 -37v27h53v-696h-55v265q-70 -100 -163 -100q-80 0 -130 66.5t-50 194.5q0 142 58 211t149 69zM280 482q-159 -2 -159 -230q0 -208 140 -208q87 0 147 98v301q-55 38 -128 39z" />
    <glyph glyph-name="r" unicode="r" horiz-adv-x="383" 
d="M150 0h-56v522h56v-94q63 103 160 103q38 0 62 -13l-12 -50q-26 11 -58 11q-94 0 -152 -100v-379z" />
    <glyph glyph-name="s" unicode="s" horiz-adv-x="498" 
d="M254 -9q-118 0 -197 63l27 43q70 -56 170 -56q57 0 95 22.5t38 69.5q0 44 -30 64t-108 37q-93 21 -135 54t-42 99q0 67 49 106t122 39q102 0 181 -65l-27 -43q-69 58 -154 58q-51 0 -83.5 -23t-32.5 -69q0 -44 30 -65t109 -38q91 -19 133 -51.5t42 -98.5
q0 -69 -53.5 -107.5t-133.5 -38.5z" />
    <glyph glyph-name="t" unicode="t" horiz-adv-x="405" 
d="M275 -8q-68 0 -104 43t-36 126v312h-107v49h107v144h56v-144h171v-49h-171v-315q0 -58 23.5 -86.5t64.5 -28.5q37 0 80 18l12 -49q-49 -20 -96 -20z" />
    <glyph glyph-name="u" unicode="u" 
d="M418 522h56v-522h-56v104q-71 -113 -174 -113q-71 0 -112.5 47t-41.5 126v358h56v-345q0 -64 30 -98.5t83 -34.5q98 0 159 111v367z" />
    <glyph glyph-name="v" unicode="v" horiz-adv-x="491" 
d="M273 0h-57l-182 522h58l154 -458l154 458h57z" />
    <glyph glyph-name="w" unicode="w" horiz-adv-x="716" 
d="M478 0l-121 402l-118 -402h-56l-138 522h56l111 -453l122 413h48l125 -416l112 456h53l-138 -522h-56z" />
    <glyph glyph-name="x" unicode="x" horiz-adv-x="475" 
d="M377 0l-142 221l-138 -221h-58l169 264l-166 258h59l139 -216l136 216h57l-165 -260l169 -262h-60z" />
    <glyph glyph-name="y" unicode="y" horiz-adv-x="497" 
d="M110 -180q-37 0 -66 8l9 50q30 -8 60 -8q42 0 64.5 26.5t40.5 81.5l6 16l-184 528h59l153 -457l151 457h57l-201 -571q-45 -131 -149 -131z" />
    <glyph glyph-name="z" unicode="z" horiz-adv-x="475" 
d="M418 0h-361v50l299 423h-299v49h361v-49l-296 -423h296v-50z" />
    <glyph glyph-name="braceleft" unicode="{" horiz-adv-x="434" 
d="M383 -137v-46q-122 -2 -176 34.5t-54 121.5v189q0 49 -24 69t-86 21v39q62 1 86 20t24 64v173q0 86 54 122.5t176 34.5v-45q-95 2 -134.5 -25t-39.5 -94v-167q0 -51 -22 -74.5t-75 -25.5v-4q52 -4 74.5 -30.5t22.5 -76.5v-180q0 -69 39 -95.5t135 -24.5z" />
    <glyph glyph-name="bar" unicode="|" horiz-adv-x="472" 
d="M210 -174v870h50v-870h-50z" />
    <glyph glyph-name="braceright" unicode="}" horiz-adv-x="434" 
d="M51 -137q96 -2 135 24.5t39 95.5v180q0 50 22.5 76.5t74.5 30.5v4q-53 2 -75 25.5t-22 74.5v167q0 67 -39.5 94t-134.5 25v45q122 2 175.5 -34.5t53.5 -122.5v-173q0 -45 24.5 -64t86.5 -20v-39q-62 -1 -86.5 -21.5t-24.5 -68.5v-189q0 -85 -53.5 -121t-175.5 -35v46z
" />
    <glyph glyph-name="asciitilde" unicode="~" horiz-adv-x="746" 
d="M509 184q-48 0 -80 35t-70 108q-46 86 -66 108q-28 31 -63 31q-39 0 -61.5 -33.5t-22.5 -103.5v-136h-49v140q0 86 38 133t103 47q51 0 84 -35t69 -105q4 -7 12 -23t12 -22.5t11.5 -20t11.5 -19.5t11 -16t12 -14.5t12 -11t13.5 -9.5t14.5 -5t16 -2q39 0 61.5 34t22.5 102
v137h48v-141q0 -85 -37.5 -131.5t-102.5 -46.5z" />
    <glyph glyph-name="exclamdown" unicode="&#xa1;" horiz-adv-x="335" 
d="M168 702q47 0 47 -51q0 -23 -12 -37t-35 -14q-47 0 -47 51t47 51zM187 493l16 -493h-70l15 493h39z" />
    <glyph glyph-name="cent" unicode="&#xa2;" horiz-adv-x="526" 
d="M463 221q-40 -132 -166 -143v-122h-42v122q-88 7 -138.5 75t-50.5 195q0 125 50.5 193t138.5 76v123h42v-123q125 -9 166 -143l-52 -18q-29 101 -114 110v-438q86 9 114 110zM123 348q0 -206 132 -220v438q-132 -14 -132 -218z" />
    <glyph glyph-name="sterling" unicode="&#xa3;" horiz-adv-x="650" 
d="M581 184q-7 -92 -49 -141.5t-113 -49.5q-36 0 -86.5 25t-62.5 28q-77 24 -132 -12l-56 -41l-34 47l52 34q38 28 64 76.5t26 95.5q0 55 -23 112h-109v47h78q-27 58 -27 116q0 79 60.5 131t155.5 52q100 0 152.5 -37t70.5 -115l-55 -8q-17 58 -55 83t-113 25
q-73 0 -116.5 -36.5t-43.5 -96.5q0 -46 33 -114h204v-47h-175q20 -52 20 -107q0 -96 -83 -161l7 -11q8 5 15.5 9t13.5 7t13.5 4t12 2t12.5 0.5t11 -0.5t11.5 -2t11 -2.5t12 -3.5t11.5 -3q16 -3 56 -23t68 -20q51 0 75 35t31 109q4 -1 10 -1.5t18.5 -2t20.5 -2.5t7 -1z" />
    <glyph glyph-name="currency" unicode="&#xa4;" horiz-adv-x="708" 
d="M355 131q148 0 148 220q0 221 -148 221q-149 0 -149 -220q0 -221 149 -221zM355 81q-95 0 -148 65l-93 -99l-40 32l105 112q-30 65 -30 161q0 89 27 153l-100 108l40 32l87 -94q53 71 153 71q96 0 150 -71l89 92l38 -31l-101 -106q28 -64 28 -155q0 -96 -29 -159
l100 -108l-39 -32l-89 94q-53 -65 -148 -65z" />
    <glyph glyph-name="brokenbar" unicode="&#xa6;" horiz-adv-x="472" 
d="M210 349v347h50v-347h-50zM210 -174v348h50v-348h-50z" />
    <glyph glyph-name="section" unicode="&#xa7;" horiz-adv-x="530" 
d="M285 157q56 2 91.5 27t35.5 75q0 74 -123 101l-36 9q-55 -1 -91.5 -27t-36.5 -76q0 -41 32 -63t90 -37q6 -2 19 -5t19 -4zM284 -176q-116 0 -198 76l32 44q79 -70 168 -70q57 0 93.5 26.5t36.5 79.5q0 56 -39.5 83.5t-122.5 46.5q-95 20 -140 53t-45 93q0 54 31.5 88
t84.5 46q-59 24 -87.5 58.5t-28.5 91.5q0 77 52.5 119t132.5 42q115 0 197 -77l-30 -44q-80 71 -169 71q-57 0 -93.5 -27.5t-36.5 -75.5q0 -58 40.5 -86t123.5 -45q95 -21 138 -54.5t43 -95.5q0 -53 -31.5 -86.5t-84.5 -45.5q59 -23 87.5 -57.5t28.5 -90.5
q0 -78 -50.5 -120.5t-132.5 -42.5z" />
    <glyph glyph-name="dieresis" unicode="&#xa8;" horiz-adv-x="528" 
d="M341 631q-41 0 -41 41q0 40 41 40q42 0 42 -41q0 -40 -42 -40zM185 631q-42 0 -42 41q0 40 42 40t42 -41q0 -40 -42 -40z" />
    <glyph glyph-name="copyright" unicode="&#xa9;" horiz-adv-x="820" 
d="M412 -91q-159 0 -253.5 102.5t-94.5 320.5q0 207 95.5 307t253.5 100q156 0 249.5 -101t93.5 -311q0 -215 -93.5 -316.5t-250.5 -101.5zM412 -57q306 0 306 384q0 192 -80.5 284.5t-225.5 92.5q-146 0 -228 -92t-82 -280q0 -389 310 -389zM415 92q-172 0 -172 239
q0 117 43.5 170.5t128.5 53.5q67 0 109 -41.5t50 -110.5l-47 -4q-5 52 -35 81.5t-78 29.5q-59 0 -90 -40t-31 -139q0 -104 31.5 -149t90.5 -45q48 0 77.5 27.5t34.5 75.5l47 -4q-8 -65 -50 -104.5t-109 -39.5z" />
    <glyph glyph-name="ordfeminine" unicode="&#xaa;" horiz-adv-x="445" 
d="M176 337q64 0 110 57v95h-107q-83 0 -83 -75q0 -77 80 -77zM164 298q-50 0 -82.5 28.5t-32.5 85.5q0 51 33 81.5t83 30.5h121v48q0 43 -23 68t-65 25q-76 0 -99 -65l-42 13q12 42 48.5 67t90.5 25q62 0 99 -32t37 -94v-182q0 -36 14.5 -47t50.5 -5v-43q-95 -13 -95 58v7
q-23 -29 -59.5 -49t-78.5 -20z" />
    <glyph glyph-name="guillemotleft" unicode="&#xab;" horiz-adv-x="621" 
d="M309 96l-238 178v61l238 179v-61l-196 -148l196 -148v-61zM549 96l-237 178v61l237 179v-61l-196 -148l196 -148v-61z" />
    <glyph glyph-name="logicalnot" unicode="&#xac;" horiz-adv-x="742" 
d="M586 8v274h-485v54h540v-328h-55z" />
    <glyph glyph-name="registered" unicode="&#xae;" horiz-adv-x="643" 
d="M322 182q-118 0 -184.5 72t-66.5 208q0 137 66.5 210.5t185.5 73.5q118 0 183 -72.5t65 -208.5q0 -138 -65 -210.5t-184 -72.5zM322 218q211 0 211 247q0 120 -53 182.5t-158 61.5q-105 1 -158 -61.5t-53 -184.5q0 -245 211 -245zM272 461h62q52 0 52 55q0 61 -52 61h-62
v-116zM272 318h-41v296h103q41 0 68 -23.5t27 -74.5q0 -81 -69 -90l73 -108h-47l-71 106h-43v-106z" />
    <glyph glyph-name="macron" unicode="&#xaf;" horiz-adv-x="528" 
d="M118 659v45h291v-45h-291z" />
    <glyph glyph-name="degree" unicode="&#xb0;" horiz-adv-x="475" 
d="M237 319q-71 0 -112 48t-41 145q0 94 41 141.5t113 47.5q71 0 111 -47t40 -142q0 -97 -40.5 -145t-111.5 -48zM237 367q51 0 75.5 33.5t24.5 109.5q0 143 -99 143q-51 0 -76.5 -34t-25.5 -108q0 -76 25 -110t76 -34z" />
    <glyph glyph-name="plusminus" unicode="&#xb1;" horiz-adv-x="626" 
d="M290 136v233h-203v47h203v232h46v-232h203v-47h-203v-233h-46zM87 18v47h452v-47h-452z" />
    <glyph glyph-name="acute" unicode="&#xb4;" horiz-adv-x="528" 
d="M189 603q55 74 99 158h81q-61 -86 -134 -158h-46z" />
    <glyph glyph-name="paragraph" unicode="&#xb6;" horiz-adv-x="537" 
d="M410 296h-114v-470h-56v470q-88 0 -141 47.5t-53 149.5t51.5 152.5t134.5 50.5h233v-870h-55v470z" />
    <glyph glyph-name="periodcentered" unicode="&#xb7;" horiz-adv-x="301" 
d="M150 285q-23 0 -37 14.5t-14 39.5q0 24 14 38.5t37 14.5q25 0 39 -14.5t14 -38.5q0 -25 -14.5 -39.5t-38.5 -14.5z" />
    <glyph glyph-name="cedilla" unicode="&#xb8;" horiz-adv-x="528" 
d="M264 -185q-73 0 -113 52l31 27q25 -41 83 -41q66 0 66 42q0 45 -86 49v64h40v-36q44 -6 70 -26.5t26 -51.5q0 -39 -34 -59t-83 -20z" />
    <glyph glyph-name="ordmasculine" unicode="&#xba;" horiz-adv-x="467" 
d="M234 298q-163 0 -163 206q0 101 43.5 151t120.5 50q75 0 117.5 -50t42.5 -150q0 -207 -161 -207zM234 338q58 0 86.5 39t28.5 128q0 158 -114 158q-117 0 -117 -158q0 -89 29 -128t87 -39z" />
    <glyph glyph-name="guillemotright" unicode="&#xbb;" horiz-adv-x="621" 
d="M312 96v61l196 148l-196 148v61l237 -179v-61zM71 96v61l197 148l-197 148v61l238 -179v-61z" />
    <glyph glyph-name="onequarter" unicode="&#xbc;" horiz-adv-x="958" 
d="M301 0l320 696h54l-319 -696h-55z" />
    <glyph glyph-name="onehalf" unicode="&#xbd;" horiz-adv-x="933" 
d="M280 0l321 696h53l-319 -696h-55z" />
    <glyph glyph-name="threequarters" unicode="&#xbe;" horiz-adv-x="993" 
d="M325 0l320 696h54l-319 -696h-55z" />
    <glyph glyph-name="questiondown" unicode="&#xbf;" horiz-adv-x="537" 
d="M304 705q23 0 35 -14.5t12 -37.5t-12 -37t-35 -14q-24 0 -36 14t-12 37q0 52 48 52zM282 503h45l2 -142q-124 -18 -173.5 -60t-49.5 -113q0 -64 45.5 -104t122.5 -40q126 0 183 106l43 -30q-70 -126 -226 -126q-100 0 -162 54t-62 144q0 170 229 205z" />
    <glyph glyph-name="Agrave" unicode="&#xc0;" horiz-adv-x="620" 
d="M330 776q-82 86 -135 159h77q42 -80 99 -159h-41zM432 269l-123 364l-122 -364h245zM522 0l-74 221h-277l-74 -221h-57l244 697h53l244 -697h-59z" />
    <glyph glyph-name="Aacute" unicode="&#xc1;" horiz-adv-x="620" 
d="M237 776q61 87 98 159h82q-56 -77 -134 -159h-46zM432 269l-123 364l-122 -364h245zM522 0l-74 221h-277l-74 -221h-57l244 697h53l244 -697h-59z" />
    <glyph glyph-name="Acircumflex" unicode="&#xc2;" horiz-adv-x="620" 
d="M169 788l-26 28q76 58 145 129h44q69 -69 147 -129l-26 -28q-62 38 -143 106q-75 -65 -141 -106zM432 269l-123 364l-122 -364h245zM522 0l-74 221h-277l-74 -221h-57l244 697h53l244 -697h-59z" />
    <glyph glyph-name="Atilde" unicode="&#xc3;" horiz-adv-x="620" 
d="M379 790q-44 0 -80 60q-2 3 -8 11.5t-8 11.5t-7.5 9.5t-8.5 9.5t-8 6.5t-9.5 5t-9.5 1.5q-46 0 -46 -96v-10h-48v13q0 62 26 101t72 39q29 0 46 -15t35 -44q12 -19 18 -28t17.5 -19t22.5 -10q45 0 45 97v10h48v-13q0 -63 -25.5 -101.5t-71.5 -38.5zM432 269l-123 364
l-122 -364h245zM522 0l-74 221h-277l-74 -221h-57l244 697h53l244 -697h-59z" />
    <glyph glyph-name="Adieresis" unicode="&#xc4;" horiz-adv-x="620" 
d="M389 805q-41 0 -41 41q0 40 41 40q42 0 42 -41q0 -40 -42 -40zM233 805q-42 0 -42 41q0 40 42 40q41 0 41 -41q0 -40 -41 -40zM432 269l-123 364l-122 -364h245zM522 0l-74 221h-277l-74 -221h-57l244 697h53l244 -697h-59z" />
    <glyph glyph-name="Aring" unicode="&#xc5;" horiz-adv-x="620" 
d="M311 776q-54 0 -85 31.5t-31 89.5q0 60 31 92t85 32t85 -32t31 -92q0 -58 -31 -89.5t-85 -31.5zM311 814q74 0 74 83q0 42 -19 64.5t-55 22.5t-55 -22.5t-19 -64.5q0 -83 74 -83zM432 269l-123 364l-122 -364h245zM522 0l-74 221h-277l-74 -221h-57l244 697h53l244 -697
h-59z" />
    <glyph glyph-name="AE" unicode="&#xc6;" horiz-adv-x="811" 
d="M329 647l-135 -370h226v370h-91zM420 229h-242l-82 -229h-59l258 696h467v-49h-286v-246h247v-49h-247v-302h286v-50h-342v229z" />
    <glyph glyph-name="Ccedilla" unicode="&#xc7;" horiz-adv-x="624" 
d="M331 -185q-73 0 -113 52l31 27q25 -41 83 -41q66 0 66 42q0 45 -86 49v47q-115 5 -181.5 94.5t-66.5 269.5q0 176 70.5 263t190.5 87q98 0 159 -54t76 -148l-54 -12q-28 164 -182 164q-204 0 -204 -300q0 -314 204 -314q159 0 183 158l53 -11q-12 -83 -66 -136t-142 -60
v-20q45 -6 70.5 -26t25.5 -52q0 -39 -34 -59t-83 -20z" />
    <glyph glyph-name="Egrave" unicode="&#xc8;" horiz-adv-x="569" 
d="M312 776q-82 84 -135 159h77q42 -80 99 -159h-41zM95 0v696h418v-49h-363v-246h324v-49h-324v-303h363v-49h-418z" />
    <glyph glyph-name="Eacute" unicode="&#xc9;" horiz-adv-x="569" 
d="M218 776q61 83 99 159h81q-55 -78 -134 -159h-46zM95 0v696h418v-49h-363v-246h324v-49h-324v-303h363v-49h-418z" />
    <glyph glyph-name="Ecircumflex" unicode="&#xca;" horiz-adv-x="569" 
d="M150 788l-25 28q78 60 144 129h45q67 -67 146 -129l-25 -28q-68 42 -143 106q-73 -62 -142 -106zM95 0v696h418v-49h-363v-246h324v-49h-324v-303h363v-49h-418z" />
    <glyph glyph-name="Edieresis" unicode="&#xcb;" horiz-adv-x="569" 
d="M377 805q-42 0 -42 41q0 40 42 40t42 -41q0 -40 -42 -40zM221 805q-42 0 -42 41q0 40 42 40q41 0 41 -41q0 -40 -41 -40zM95 0v696h418v-49h-363v-246h324v-49h-324v-303h363v-49h-418z" />
    <glyph glyph-name="Igrave" unicode="&#xcc;" horiz-adv-x="428" 
d="M224 776q-81 83 -136 159h78q35 -70 98 -159h-40zM47 0v49h139v598h-139v49h334v-49h-139v-598h139v-49h-334z" />
    <glyph glyph-name="Iacute" unicode="&#xcd;" horiz-adv-x="428" 
d="M161 776q61 87 98 159h81q-55 -78 -134 -159h-45zM47 0v49h139v598h-139v49h334v-49h-139v-598h139v-49h-334z" />
    <glyph glyph-name="Icircumflex" unicode="&#xce;" horiz-adv-x="428" 
d="M69 788l-25 28q72 55 144 129h45q66 -67 146 -129l-25 -28q-66 40 -144 106q-69 -61 -141 -106zM47 0v49h139v598h-139v49h334v-49h-139v-598h139v-49h-334z" />
    <glyph glyph-name="Idieresis" unicode="&#xcf;" horiz-adv-x="428" 
d="M293 805q-42 0 -42 41q0 40 42 40q41 0 41 -41q0 -40 -41 -40zM136 805q-41 0 -41 41q0 40 41 40q42 0 42 -41q0 -40 -42 -40zM47 0v49h139v598h-139v49h334v-49h-139v-598h139v-49h-334z" />
    <glyph glyph-name="Eth" unicode="&#xd0;" horiz-adv-x="659" 
d="M310 0h-212v353h-87v50h87v293h213q129 0 206.5 -83.5t77.5 -260.5q0 -183 -77.5 -267.5t-207.5 -84.5zM153 50h157q229 0 229 302q0 155 -61.5 225t-167.5 70h-157v-244h178v-50h-178v-303z" />
    <glyph glyph-name="Ntilde" unicode="&#xd1;" horiz-adv-x="658" 
d="M414 790q-27 0 -45 15.5t-36 44.5q-1 2 -5.5 9t-6.5 9t-6 8t-6 8t-6 6.5t-7 6.5t-6.5 4t-7.5 3t-8 1q-45 0 -45 -96v-10h-48v13q0 63 25.5 101.5t71.5 38.5q29 0 46 -15t36 -44q28 -45 43 -53q8 -4 15 -4q44 0 44 97v10h48v-13q0 -63 -25.5 -101.5t-70.5 -38.5zM563 -1
h-66l-351 615v-614h-51v696h66l350 -614v614h52v-697z" />
    <glyph glyph-name="Ograve" unicode="&#xd2;" horiz-adv-x="650" 
d="M334 776q-82 86 -135 159h77q42 -80 99 -159h-41zM326 -9q-122 0 -192 88.5t-70 276.5q0 177 70.5 263t192.5 86q120 0 189.5 -86t69.5 -263q0 -188 -69 -276.5t-191 -88.5zM326 41q98 0 151 73t53 242q0 299 -204 299q-206 0 -206 -299q0 -169 53.5 -242t152.5 -73z" />
    <glyph glyph-name="Oacute" unicode="&#xd3;" horiz-adv-x="650" 
d="M261 776q55 76 99 159h81q-60 -84 -134 -159h-46zM326 -9q-122 0 -192 88.5t-70 276.5q0 177 70.5 263t192.5 86q120 0 189.5 -86t69.5 -263q0 -188 -69 -276.5t-191 -88.5zM326 41q98 0 151 73t53 242q0 299 -204 299q-206 0 -206 -299q0 -169 53.5 -242t152.5 -73z" />
    <glyph glyph-name="Ocircumflex" unicode="&#xd4;" horiz-adv-x="650" 
d="M183 788l-25 28q76 60 144 129h45q66 -67 146 -129l-26 -28q-66 41 -143 106q-69 -61 -141 -106zM326 -9q-122 0 -192 88.5t-70 276.5q0 177 70.5 263t192.5 86q120 0 189.5 -86t69.5 -263q0 -188 -69 -276.5t-191 -88.5zM326 41q98 0 151 73t53 242q0 299 -204 299
q-206 0 -206 -299q0 -169 53.5 -242t152.5 -73z" />
    <glyph glyph-name="Otilde" unicode="&#xd5;" horiz-adv-x="650" 
d="M393 790q-44 0 -80 60q-14 20 -19 27.5t-17 17.5t-23 10q-21 0 -33.5 -24.5t-12.5 -71.5v-10h-47v13q0 63 25.5 101.5t71.5 38.5q29 0 46 -15t35 -44q2 -2 7 -10t7 -10.5t6.5 -9t7 -9.5t6.5 -7t7.5 -6t8 -3.5t8.5 -1.5q45 0 45 97v10h48v-13q0 -63 -25.5 -101.5
t-71.5 -38.5zM326 -9q-122 0 -192 88.5t-70 276.5q0 177 70.5 263t192.5 86q120 0 189.5 -86t69.5 -263q0 -188 -69 -276.5t-191 -88.5zM326 41q98 0 151 73t53 242q0 299 -204 299q-206 0 -206 -299q0 -169 53.5 -242t152.5 -73z" />
    <glyph glyph-name="Odieresis" unicode="&#xd6;" horiz-adv-x="650" 
d="M403 805q-41 0 -41 41q0 40 41 40q42 0 42 -41q0 -40 -42 -40zM247 805q-42 0 -42 41q0 40 42 40t42 -41q0 -40 -42 -40zM326 -9q-122 0 -192 88.5t-70 276.5q0 177 70.5 263t192.5 86q120 0 189.5 -86t69.5 -263q0 -188 -69 -276.5t-191 -88.5zM326 41q98 0 151 73
t53 242q0 299 -204 299q-206 0 -206 -299q0 -169 53.5 -242t152.5 -73z" />
    <glyph glyph-name="multiply" unicode="&#xd7;" horiz-adv-x="626" 
d="M107 128l176 176l-175 174l31 31l174 -174l176 176l30 -30l-176 -176l175 -175l-31 -30l-175 174l-176 -176z" />
    <glyph glyph-name="Oslash" unicode="&#xd8;" horiz-adv-x="650" 
d="M120 356q0 -196 77 -270l205 557q-34 12 -76 12q-206 0 -206 -299zM326 41q99 0 151.5 73t52.5 242q0 199 -89 266l-206 -562q39 -19 91 -19zM326 -9q-60 0 -109 21l-37 -99l-46 1l45 120q-115 86 -115 322q0 177 70.5 263t192.5 86q50 0 92 -15l34 94h47l-41 -113
q127 -78 127 -315q0 -188 -69 -276.5t-191 -88.5z" />
    <glyph glyph-name="Ugrave" unicode="&#xd9;" horiz-adv-x="645" 
d="M341 776q-82 86 -135 159h78q35 -70 98 -159h-41zM322 -9q-111 0 -174 71.5t-63 182.5v451h56v-452q0 -90 45.5 -146.5t135.5 -56.5q91 0 136.5 56.5t45.5 146.5v452h56v-451q0 -111 -63 -182.5t-175 -71.5z" />
    <glyph glyph-name="Uacute" unicode="&#xda;" horiz-adv-x="645" 
d="M248 776q56 76 99 159h81q-56 -77 -134 -159h-46zM322 -9q-111 0 -174 71.5t-63 182.5v451h56v-452q0 -90 45.5 -146.5t135.5 -56.5q91 0 136.5 56.5t45.5 146.5v452h56v-451q0 -111 -63 -182.5t-175 -71.5z" />
    <glyph glyph-name="Ucircumflex" unicode="&#xdb;" horiz-adv-x="645" 
d="M180 788l-26 28q76 58 145 129h44q69 -69 147 -129l-26 -28q-66 41 -143 106q-75 -65 -141 -106zM322 -9q-111 0 -174 71.5t-63 182.5v451h56v-452q0 -90 45.5 -146.5t135.5 -56.5q91 0 136.5 56.5t45.5 146.5v452h56v-451q0 -111 -63 -182.5t-175 -71.5z" />
    <glyph glyph-name="Udieresis" unicode="&#xdc;" horiz-adv-x="645" 
d="M400 805q-41 0 -41 41q0 40 41 40q42 0 42 -41q0 -40 -42 -40zM244 805q-42 0 -42 41q0 40 42 40t42 -41q0 -40 -42 -40zM322 -9q-111 0 -174 71.5t-63 182.5v451h56v-452q0 -90 45.5 -146.5t135.5 -56.5q91 0 136.5 56.5t45.5 146.5v452h56v-451q0 -111 -63 -182.5
t-175 -71.5z" />
    <glyph glyph-name="Yacute" unicode="&#xdd;" horiz-adv-x="586" 
d="M231 776q61 87 98 159h82q-57 -80 -135 -159h-45zM321 0h-56v266l-238 430h63l205 -378l202 378h61l-237 -430v-266z" />
    <glyph glyph-name="Thorn" unicode="&#xde;" horiz-adv-x="573" 
d="M95 0v696h55v-121h132q109 0 174.5 -54t65.5 -162q0 -109 -65.5 -164.5t-174.5 -55.5h-132v-139h-55zM150 526v-339h130q86 0 136 42t50 130q0 87 -50 127t-136 40h-130z" />
    <glyph glyph-name="germandbls" unicode="&#xdf;" horiz-adv-x="668" 
d="M425 -6q-114 0 -184 67l33 44q67 -60 157 -60q52 0 85.5 22.5t33.5 69.5q0 46 -29 67.5t-100 37.5q-85 18 -121 49t-36 91q0 63 49.5 101t125.5 40q-5 64 -44 95.5t-99 31.5q-66 0 -106 -37t-40 -105v-508h-55v516q0 87 55.5 137.5t144.5 50.5q90 0 145.5 -52t55.5 -140
v-30q-177 0 -177 -93q0 -44 29.5 -62.5t104.5 -35.5q81 -18 117 -52t36 -97q0 -71 -51.5 -109.5t-129.5 -38.5z" />
    <glyph glyph-name="agrave" unicode="&#xe0;" horiz-adv-x="530" 
d="M254 603q-76 76 -135 158h77q43 -82 99 -158h-41zM225 38q83 0 146 72v132h-151q-49 0 -79 -25.5t-30 -74.5t31 -76.5t83 -27.5zM503 -1q-47 -11 -81 11t-35 64q-75 -84 -174 -84q-67 0 -111.5 39.5t-44.5 108.5t44 109.5t118 40.5h152v71q0 61 -31.5 93t-90.5 32
q-50 0 -80.5 -21.5t-51.5 -70.5l-46 24q50 116 183 116q77 0 124 -44t47 -120v-260q0 -40 21 -55.5t57 -4.5v-49z" />
    <glyph glyph-name="aacute" unicode="&#xe1;" horiz-adv-x="530" 
d="M189 603q55 74 99 158h81q-61 -86 -134 -158h-46zM225 38q83 0 146 72v132h-151q-49 0 -79 -25.5t-30 -74.5t31 -76.5t83 -27.5zM503 -1q-47 -11 -81 11t-35 64q-75 -84 -174 -84q-67 0 -111.5 39.5t-44.5 108.5t44 109.5t118 40.5h152v71q0 61 -31.5 93t-90.5 32
q-50 0 -80.5 -21.5t-51.5 -70.5l-46 24q50 116 183 116q77 0 124 -44t47 -120v-260q0 -40 21 -55.5t57 -4.5v-49z" />
    <glyph glyph-name="acircumflex" unicode="&#xe2;" horiz-adv-x="530" 
d="M110 614l-26 28q69 53 145 129h44q76 -75 147 -129l-26 -28q-65 40 -143 107q-72 -64 -141 -107zM225 38q83 0 146 72v132h-151q-49 0 -79 -25.5t-30 -74.5t31 -76.5t83 -27.5zM503 -1q-47 -11 -81 11t-35 64q-75 -84 -174 -84q-67 0 -111.5 39.5t-44.5 108.5t44 109.5
t118 40.5h152v71q0 61 -31.5 93t-90.5 32q-50 0 -80.5 -21.5t-51.5 -70.5l-46 24q50 116 183 116q77 0 124 -44t47 -120v-260q0 -40 21 -55.5t57 -4.5v-49z" />
    <glyph glyph-name="atilde" unicode="&#xe3;" horiz-adv-x="530" 
d="M317 616q-44 0 -80 60q-2 3 -9 13t-9.5 14t-8.5 11t-10.5 10t-10 5.5t-11.5 2.5q-46 0 -46 -97v-10h-48v13q0 63 26 101.5t72 38.5q29 0 46 -15t35 -43q11 -18 18 -28t18 -19.5t22 -9.5q45 0 45 96v10h48v-13q0 -63 -25.5 -101.5t-71.5 -38.5zM225 38q83 0 146 72v132
h-151q-49 0 -79 -25.5t-30 -74.5t31 -76.5t83 -27.5zM503 -1q-47 -11 -81 11t-35 64q-75 -84 -174 -84q-67 0 -111.5 39.5t-44.5 108.5t44 109.5t118 40.5h152v71q0 61 -31.5 93t-90.5 32q-50 0 -80.5 -21.5t-51.5 -70.5l-46 24q50 116 183 116q77 0 124 -44t47 -120v-260
q0 -40 21 -55.5t57 -4.5v-49z" />
    <glyph glyph-name="adieresis" unicode="&#xe4;" horiz-adv-x="530" 
d="M336 631q-41 0 -41 41q0 40 41 40q42 0 42 -41q0 -40 -42 -40zM180 631q-42 0 -42 41q0 40 42 40t42 -41q0 -40 -42 -40zM225 38q83 0 146 72v132h-151q-49 0 -79 -25.5t-30 -74.5t31 -76.5t83 -27.5zM503 -1q-47 -11 -81 11t-35 64q-75 -84 -174 -84q-67 0 -111.5 39.5
t-44.5 108.5t44 109.5t118 40.5h152v71q0 61 -31.5 93t-90.5 32q-50 0 -80.5 -21.5t-51.5 -70.5l-46 24q50 116 183 116q77 0 124 -44t47 -120v-260q0 -40 21 -55.5t57 -4.5v-49z" />
    <glyph glyph-name="aring" unicode="&#xe5;" horiz-adv-x="530" 
d="M246 603q-54 0 -85 31t-31 90t31.5 91.5t84.5 32.5t84.5 -32.5t31.5 -91.5t-31 -90t-85 -31zM246 640q74 0 74 84q0 41 -19 63.5t-55 22.5t-55 -22.5t-19 -63.5q0 -84 74 -84zM225 38q83 0 146 72v132h-151q-49 0 -79 -25.5t-30 -74.5t31 -76.5t83 -27.5zM503 -1
q-47 -11 -81 11t-35 64q-75 -84 -174 -84q-67 0 -111.5 39.5t-44.5 108.5t44 109.5t118 40.5h152v71q0 61 -31.5 93t-90.5 32q-50 0 -80.5 -21.5t-51.5 -70.5l-46 24q50 116 183 116q77 0 124 -44t47 -120v-260q0 -40 21 -55.5t57 -4.5v-49z" />
    <glyph glyph-name="ae" unicode="&#xe6;" horiz-adv-x="823" 
d="M576 484q-138 0 -150 -184h282v4q0 90 -36.5 135t-95.5 45zM225 38q87 0 166 92q-17 45 -20 113h-150q-50 0 -80 -26t-30 -75t30.5 -76.5t83.5 -27.5zM586 -9q-121 0 -176 97q-95 -98 -197 -98q-67 0 -111.5 39.5t-44.5 107.5q0 71 44 112t117 41h153v69q0 60 -31.5 92.5
t-90.5 32.5q-49 0 -80 -21.5t-52 -71.5l-46 25q50 116 183 116q56 0 96.5 -24t59.5 -67q54 91 166 91q82 0 135 -62t53 -172v-45h-339q4 -212 161 -212q82 0 130 67l38 -35q-58 -82 -168 -82z" />
    <glyph glyph-name="ccedilla" unicode="&#xe7;" horiz-adv-x="513" 
d="M270 -185q-74 0 -112 52l30 27q25 -41 83 -41q66 0 66 42q0 45 -86 49v48q-88 8 -137 75.5t-49 194.5q0 133 56 201.5t155 68.5q143 0 185 -145l-51 -16q-33 111 -136 111q-152 0 -152 -220q0 -221 152 -221q52 0 85.5 25.5t50.5 84.5l51 -16q-39 -136 -170 -144v-19
q45 -6 70.5 -26t25.5 -52q0 -39 -34 -59t-83 -20z" />
    <glyph glyph-name="egrave" unicode="&#xe8;" horiz-adv-x="533" 
d="M287 603q-80 80 -136 158h78q37 -72 98 -158h-40zM277 484q-141 0 -154 -184h295v4q-1 90 -39.5 135t-101.5 45zM462 73q-26 -40 -72.5 -61t-100.5 -21q-106 0 -165 70t-59 202q0 133 56.5 201t156.5 68q85 0 140.5 -62t55.5 -172v-45h-352q4 -212 167 -212q87 0 137 67z
" />
    <glyph glyph-name="eacute" unicode="&#xe9;" horiz-adv-x="533" 
d="M206 603q55 74 99 158h81q-56 -80 -134 -158h-46zM277 484q-141 0 -154 -184h295v4q-1 90 -39.5 135t-101.5 45zM462 73q-26 -40 -72.5 -61t-100.5 -21q-106 0 -165 70t-59 202q0 133 56.5 201t156.5 68q85 0 140.5 -62t55.5 -172v-45h-352q4 -212 167 -212q87 0 137 67z
" />
    <glyph glyph-name="ecircumflex" unicode="&#xea;" horiz-adv-x="533" 
d="M125 614l-25 28q70 55 144 129h45q72 -72 146 -129l-25 -28q-69 42 -144 107q-67 -60 -141 -107zM277 484q-141 0 -154 -184h295v4q-1 90 -39.5 135t-101.5 45zM462 73q-26 -40 -72.5 -61t-100.5 -21q-106 0 -165 70t-59 202q0 133 56.5 201t156.5 68q85 0 140.5 -62
t55.5 -172v-45h-352q4 -212 167 -212q87 0 137 67z" />
    <glyph glyph-name="edieresis" unicode="&#xeb;" horiz-adv-x="533" 
d="M346 631q-42 0 -42 41q0 40 42 40q41 0 41 -41q0 -40 -41 -40zM189 631q-42 0 -42 41q0 40 42 40t42 -41q0 -40 -42 -40zM277 484q-141 0 -154 -184h295v4q-1 90 -39.5 135t-101.5 45zM462 73q-26 -40 -72.5 -61t-100.5 -21q-106 0 -165 70t-59 202q0 133 56.5 201
t156.5 68q85 0 140.5 -62t55.5 -172v-45h-352q4 -212 167 -212q87 0 137 67z" />
    <glyph glyph-name="igrave" unicode="&#xec;" horiz-adv-x="266" 
d="M148 603q-80 82 -135 158h77q43 -82 99 -158h-41zM95 0v522h55v-522h-55z" />
    <glyph glyph-name="iacute" unicode="&#xed;" horiz-adv-x="266" 
d="M85 603q55 74 99 158h81q-56 -80 -134 -158h-46zM95 0v522h55v-522h-55z" />
    <glyph glyph-name="icircumflex" unicode="&#xee;" horiz-adv-x="266" 
d="M-13 614l-26 28q69 53 145 129h44q76 -75 147 -129l-26 -28q-69 43 -143 107q-72 -64 -141 -107zM95 0v522h55v-522h-55z" />
    <glyph glyph-name="idieresis" unicode="&#xef;" horiz-adv-x="266" 
d="M212 631q-41 0 -41 41q0 40 41 40q42 0 42 -41q0 -40 -42 -40zM56 631q-42 0 -42 41q0 40 42 40t42 -41q0 -40 -42 -40zM95 0v522h55v-522h-55z" />
    <glyph glyph-name="eth" unicode="&#xf0;" horiz-adv-x="586" 
d="M291 -10q-97 0 -151 60.5t-54 173.5q0 98 52 155t137 57q63 0 107 -23.5t61 -61.5v32q0 124 -60 193l-163 -80v44l133 65q-59 46 -161 64l12 43q136 -29 195 -85l125 61v-44l-97 -47q64 -87 67 -267l1 -78q0 -131 -53 -196.5t-151 -65.5zM292 40q146 0 146 185
q0 84 -35.5 122t-110.5 38q-76 0 -112.5 -39t-36.5 -123q0 -183 149 -183z" />
    <glyph glyph-name="ntilde" unicode="&#xf1;" 
d="M367 616q-44 0 -80 60q-2 3 -9 13t-9.5 14t-8.5 11t-10.5 10t-10 5.5t-11.5 2.5q-46 0 -46 -97v-10h-48v13q0 63 26 101.5t72 38.5q20 0 36 -9.5t24.5 -20t20.5 -28.5q11 -18 18 -28t18 -19.5t22 -9.5q45 0 45 96v10h47v-13q0 -63 -25.5 -101.5t-70.5 -38.5zM150 0h-56
v522h56v-104q71 114 175 114q70 0 111.5 -47t41.5 -127v-358h-56v345q0 64 -30 99t-83 35q-96 0 -159 -112v-367z" />
    <glyph glyph-name="ograve" unicode="&#xf2;" horiz-adv-x="541" 
d="M291 603q-80 80 -136 158h78q37 -72 98 -158h-40zM270 -9q-96 0 -150.5 67.5t-54.5 202.5q0 134 55 202.5t151 68.5q94 0 149.5 -69t55.5 -203t-55 -201.5t-151 -67.5zM270 41q149 0 149 219q0 222 -149 222q-148 0 -148 -221q0 -220 148 -220z" />
    <glyph glyph-name="oacute" unicode="&#xf3;" horiz-adv-x="541" 
d="M207 603q55 74 99 158h81q-56 -80 -134 -158h-46zM270 -9q-96 0 -150.5 67.5t-54.5 202.5q0 134 55 202.5t151 68.5q94 0 149.5 -69t55.5 -203t-55 -201.5t-151 -67.5zM270 41q149 0 149 219q0 222 -149 222q-148 0 -148 -221q0 -220 148 -220z" />
    <glyph glyph-name="ocircumflex" unicode="&#xf4;" horiz-adv-x="541" 
d="M129 614l-25 28q70 55 144 129h45q72 -72 146 -129l-25 -28q-69 42 -144 107q-67 -60 -141 -107zM270 -9q-96 0 -150.5 67.5t-54.5 202.5q0 134 55 202.5t151 68.5q94 0 149.5 -69t55.5 -203t-55 -201.5t-151 -67.5zM270 41q149 0 149 219q0 222 -149 222
q-148 0 -148 -221q0 -220 148 -220z" />
    <glyph glyph-name="otilde" unicode="&#xf5;" horiz-adv-x="541" 
d="M339 616q-44 0 -80 60q-2 3 -6.5 10t-6.5 10t-6.5 9.5t-7.5 9t-7 6.5t-7.5 6t-8 3.5t-9.5 1.5q-21 0 -33.5 -25t-12.5 -72v-10h-47v13q0 63 25.5 101.5t71.5 38.5q29 0 46 -14.5t36 -43.5q12 -20 18 -28.5t17 -18.5t22 -10q45 0 45 96v10h48v-13q0 -63 -25.5 -101.5
t-71.5 -38.5zM270 -9q-96 0 -150.5 67.5t-54.5 202.5q0 134 55 202.5t151 68.5q94 0 149.5 -69t55.5 -203t-55 -201.5t-151 -67.5zM270 41q149 0 149 219q0 222 -149 222q-148 0 -148 -221q0 -220 148 -220z" />
    <glyph glyph-name="odieresis" unicode="&#xf6;" horiz-adv-x="541" 
d="M350 631q-42 0 -42 41q0 40 42 40q41 0 41 -41q0 -40 -41 -40zM193 631q-42 0 -42 41q0 40 42 40t42 -41q0 -40 -42 -40zM270 -9q-96 0 -150.5 67.5t-54.5 202.5q0 134 55 202.5t151 68.5q94 0 149.5 -69t55.5 -203t-55 -201.5t-151 -67.5zM270 41q149 0 149 219
q0 222 -149 222q-148 0 -148 -221q0 -220 148 -220z" />
    <glyph glyph-name="divide" unicode="&#xf7;" horiz-adv-x="626" 
d="M316 474q-21 0 -33.5 12.5t-12.5 36.5q0 50 46 50q47 0 47 -50q0 -24 -13 -36.5t-34 -12.5zM87 282v46h452v-46h-452zM316 38q-46 0 -46 48q0 50 46 50q47 0 47 -50q0 -48 -47 -48z" />
    <glyph glyph-name="oslash" unicode="&#xf8;" horiz-adv-x="541" 
d="M122 261q0 -125 47 -178l174 380q-31 19 -73 19q-148 0 -148 -221zM270 41q149 0 149 219q0 118 -43 173l-174 -377q30 -15 68 -15zM270 -9q-48 0 -89 18l-44 -96h-46l54 119q-80 69 -80 229q0 134 55 202.5t151 68.5q51 0 93 -22l47 100h45l-57 -125q77 -69 77 -225
q0 -134 -55 -201.5t-151 -67.5z" />
    <glyph glyph-name="ugrave" unicode="&#xf9;" 
d="M280 603q-80 82 -135 158h78q37 -72 98 -158h-41zM418 522h56v-522h-56v104q-71 -113 -174 -113q-71 0 -112.5 47t-41.5 126v358h56v-345q0 -64 30 -98.5t83 -34.5q98 0 159 111v367z" />
    <glyph glyph-name="uacute" unicode="&#xfa;" 
d="M232 603q60 83 98 158h82q-59 -82 -135 -158h-45zM418 522h56v-522h-56v104q-71 -113 -174 -113q-71 0 -112.5 47t-41.5 126v358h56v-345q0 -64 30 -98.5t83 -34.5q98 0 159 111v367z" />
    <glyph glyph-name="ucircumflex" unicode="&#xfb;" 
d="M141 614l-25 28q65 50 144 129h45q80 -78 146 -129l-25 -28q-71 43 -143 107q-70 -62 -142 -107zM418 522h56v-522h-56v104q-71 -113 -174 -113q-71 0 -112.5 47t-41.5 126v358h56v-345q0 -64 30 -98.5t83 -34.5q98 0 159 111v367z" />
    <glyph glyph-name="udieresis" unicode="&#xfc;" 
d="M369 631q-42 0 -42 41q0 40 42 40t42 -41q0 -40 -42 -40zM212 631q-41 0 -41 41q0 40 41 40q42 0 42 -41q0 -40 -42 -40zM418 522h56v-522h-56v104q-71 -113 -174 -113q-71 0 -112.5 47t-41.5 126v358h56v-345q0 -64 30 -98.5t83 -34.5q98 0 159 111v367z" />
    <glyph glyph-name="yacute" unicode="&#xfd;" horiz-adv-x="497" 
d="M174 603q60 83 98 158h82q-57 -80 -134 -158h-46zM110 -180q-37 0 -66 8l9 50q30 -8 60 -8q42 0 64.5 26.5t40.5 81.5l6 16l-184 528h59l153 -457l151 457h57l-201 -571q-45 -131 -149 -131z" />
    <glyph glyph-name="thorn" unicode="&#xfe;" horiz-adv-x="558" 
d="M277 41q160 2 160 229q0 209 -140 209q-85 0 -147 -99v-301q53 -37 127 -38zM286 -9q-80 0 -136 36v-201h-55v890h55v-285q69 101 163 101q80 0 130 -67t50 -195q0 -142 -58 -210.5t-149 -68.5z" />
    <glyph glyph-name="ydieresis" unicode="&#xff;" horiz-adv-x="497" 
d="M326 631q-41 0 -41 41q0 40 41 40q42 0 42 -41q0 -40 -42 -40zM170 631q-42 0 -42 41q0 40 42 40q41 0 41 -41q0 -40 -41 -40zM110 -180q-37 0 -66 8l9 50q30 -8 60 -8q42 0 64.5 26.5t40.5 81.5l6 16l-184 528h59l153 -457l151 457h57l-201 -571q-45 -131 -149 -131z
" />
    <glyph glyph-name="Amacron" unicode="&#x100;" horiz-adv-x="620" 
d="M166 832v46h290v-46h-290zM432 269l-123 364l-122 -364h245zM522 0l-74 221h-277l-74 -221h-57l244 697h53l244 -697h-59z" />
    <glyph glyph-name="amacron" unicode="&#x101;" horiz-adv-x="530" 
d="M118 660v45h291v-45h-291zM225 38q83 0 146 72v132h-151q-49 0 -79 -25.5t-30 -74.5t31 -76.5t83 -27.5zM503 -1q-47 -11 -81 11t-35 64q-75 -84 -174 -84q-67 0 -111.5 39.5t-44.5 108.5t44 109.5t118 40.5h152v71q0 61 -31.5 93t-90.5 32q-50 0 -80.5 -21.5
t-51.5 -70.5l-46 24q50 116 183 116q77 0 124 -44t47 -120v-260q0 -40 21 -55.5t57 -4.5v-49z" />
    <glyph glyph-name="Abreve" unicode="&#x102;" horiz-adv-x="620" 
d="M311 788q-74 0 -116.5 38t-43.5 117h47q1 -61 29 -88.5t84 -27.5t84 27.5t29 88.5h47q-1 -79 -43.5 -117t-116.5 -38zM432 269l-123 364l-122 -364h245zM522 0l-74 221h-277l-74 -221h-57l244 697h53l244 -697h-59z" />
    <glyph glyph-name="abreve" unicode="&#x103;" horiz-adv-x="530" 
d="M263 614q-73 0 -115.5 38t-43.5 117h46q1 -61 29 -88.5t84 -27.5t84 27.5t29 88.5h47q-1 -79 -43.5 -117t-116.5 -38zM225 38q83 0 146 72v132h-151q-49 0 -79 -25.5t-30 -74.5t31 -76.5t83 -27.5zM503 -1q-47 -11 -81 11t-35 64q-75 -84 -174 -84q-67 0 -111.5 39.5
t-44.5 108.5t44 109.5t118 40.5h152v71q0 61 -31.5 93t-90.5 32q-50 0 -80.5 -21.5t-51.5 -70.5l-46 24q50 116 183 116q77 0 124 -44t47 -120v-260q0 -40 21 -55.5t57 -4.5v-49z" />
    <glyph glyph-name="Aogonek" unicode="&#x104;" horiz-adv-x="620" 
d="M432 269l-123 364l-122 -364h245zM628 -177q-40 -8 -74 -8q-50 0 -82 24t-32 64q0 72 75 118l-67 200h-277l-74 -221h-57l244 697h53l244 -697h-51q-47 -37 -47 -83q0 -28 21 -43.5t57 -15.5q35 0 66 9z" />
    <glyph glyph-name="aogonek" unicode="&#x105;" horiz-adv-x="530" 
d="M225 38q83 0 146 72v132h-151q-49 0 -79 -25.5t-30 -74.5t31 -76.5t83 -27.5zM543 -177q-42 -8 -75 -8q-50 0 -81.5 24t-31.5 64q0 65 63 110q-31 23 -31 61q-75 -84 -174 -84q-67 0 -111.5 39.5t-44.5 108.5t44 109.5t118 40.5h152v71q0 61 -31.5 93t-90.5 32
q-50 0 -80.5 -21.5t-51.5 -70.5l-46 24q50 116 183 116q77 0 124 -44t47 -120v-260q0 -40 21 -55.5t57 -4.5v-49q-30 -7 -58 1q-48 -38 -48 -83q0 -28 21.5 -43.5t57.5 -15.5q34 0 66 9z" />
    <glyph glyph-name="Cacute" unicode="&#x106;" horiz-adv-x="624" 
d="M256 776q56 76 99 159h81q-60 -84 -134 -159h-46zM324 -9q-120 0 -190 90t-70 274q0 176 70.5 263t190.5 87q98 0 159 -54t76 -148l-54 -12q-28 164 -182 164q-204 0 -204 -300q0 -314 204 -314q159 0 183 158l53 -11q-12 -89 -74 -143t-162 -54z" />
    <glyph glyph-name="cacute" unicode="&#x107;" horiz-adv-x="513" 
d="M215 603q59 80 99 158h81q-56 -80 -134 -158h-46zM275 -9q-99 0 -154.5 67.5t-55.5 203.5q0 133 56 201.5t155 68.5q143 0 185 -145l-51 -16q-33 111 -136 111q-152 0 -152 -220q0 -221 152 -221q52 0 85.5 25.5t50.5 84.5l51 -16q-43 -144 -186 -144z" />
    <glyph glyph-name="Ccircumflex" unicode="&#x108;" horiz-adv-x="624" 
d="M188 788l-25 28q77 60 144 129h45q66 -67 146 -129l-25 -28q-66 40 -144 106q-69 -61 -141 -106zM324 -9q-120 0 -190 90t-70 274q0 176 70.5 263t190.5 87q98 0 159 -54t76 -148l-54 -12q-28 164 -182 164q-204 0 -204 -300q0 -314 204 -314q159 0 183 158l53 -11
q-12 -89 -74 -143t-162 -54z" />
    <glyph glyph-name="ccircumflex" unicode="&#x109;" horiz-adv-x="513" 
d="M125 614l-25 28q70 55 144 129h45q72 -72 146 -129l-25 -28q-69 42 -144 107q-67 -60 -141 -107zM275 -9q-99 0 -154.5 67.5t-55.5 203.5q0 133 56 201.5t155 68.5q143 0 185 -145l-51 -16q-33 111 -136 111q-152 0 -152 -220q0 -221 152 -221q52 0 85.5 25.5t50.5 84.5
l51 -16q-43 -144 -186 -144z" />
    <glyph glyph-name="Cdotaccent" unicode="&#x10a;" horiz-adv-x="624" 
d="M330 805q-41 0 -41 41q0 40 41 40q42 0 42 -41q0 -40 -42 -40zM324 -9q-120 0 -190 90t-70 274q0 176 70.5 263t190.5 87q98 0 159 -54t76 -148l-54 -12q-28 164 -182 164q-204 0 -204 -300q0 -314 204 -314q159 0 183 158l53 -11q-12 -89 -74 -143t-162 -54z" />
    <glyph glyph-name="cdotaccent" unicode="&#x10b;" horiz-adv-x="513" 
d="M257 631q-42 0 -42 41q0 40 42 40t42 -41q0 -40 -42 -40zM275 -9q-99 0 -154.5 67.5t-55.5 203.5q0 133 56 201.5t155 68.5q143 0 185 -145l-51 -16q-33 111 -136 111q-152 0 -152 -220q0 -221 152 -221q52 0 85.5 25.5t50.5 84.5l51 -16q-43 -144 -186 -144z" />
    <glyph glyph-name="Ccaron" unicode="&#x10c;" horiz-adv-x="624" 
d="M309 784q-76 74 -146 129l25 28q75 -48 143 -107q71 63 142 107l25 -28q-82 -63 -144 -129h-45zM324 -9q-120 0 -190 90t-70 274q0 176 70.5 263t190.5 87q98 0 159 -54t76 -148l-54 -12q-28 164 -182 164q-204 0 -204 -300q0 -314 204 -314q159 0 183 158l53 -11
q-12 -89 -74 -143t-162 -54z" />
    <glyph glyph-name="ccaron" unicode="&#x10d;" horiz-adv-x="513" 
d="M236 610q-70 70 -147 129l26 28q65 -42 143 -106q73 63 141 106l26 -28q-85 -65 -145 -129h-44zM275 -9q-99 0 -154.5 67.5t-55.5 203.5q0 133 56 201.5t155 68.5q143 0 185 -145l-51 -16q-33 111 -136 111q-152 0 -152 -220q0 -221 152 -221q52 0 85.5 25.5t50.5 84.5
l51 -16q-43 -144 -186 -144z" />
    <glyph glyph-name="Dcaron" unicode="&#x10e;" horiz-adv-x="655" 
d="M311 784q-76 74 -146 129l25 28q75 -48 143 -107q71 63 142 107l25 -28q-82 -63 -144 -129h-45zM95 0v696h213q129 0 206 -83.5t77 -260.5q0 -183 -77.5 -267.5t-206.5 -84.5h-212zM150 50h157q229 0 229 302q0 155 -61.5 225t-167.5 70h-157v-597z" />
    <glyph glyph-name="dcaron" unicode="&#x10f;" horiz-adv-x="558" 
d="M527 562q33 97 41 185h60q-16 -105 -62 -185h-39zM280 482q-159 -2 -159 -230q0 -208 140 -208q87 0 147 98v301q-55 38 -128 39zM273 532q74 0 135 -37v221h56v-716h-55v92q-66 -101 -164 -101q-80 0 -130 66.5t-50 194.5q0 142 58 211t150 69z" />
    <glyph glyph-name="Dcroat" unicode="&#x110;" horiz-adv-x="659" 
d="M310 0h-212v353h-87v50h87v293h213q129 0 206.5 -83.5t77.5 -260.5q0 -183 -77.5 -267.5t-207.5 -84.5zM153 50h157q229 0 229 302q0 155 -61.5 225t-167.5 70h-157v-244h178v-50h-178v-303z" />
    <glyph glyph-name="dcroat" unicode="&#x111;" horiz-adv-x="558" 
d="M280 461q-159 -2 -159 -219q0 -198 140 -198q87 0 147 98v281q-53 37 -128 38zM410 91q-70 -100 -165 -100q-81 0 -130.5 63.5t-49.5 187.5q0 137 58 203t149 66q77 0 136 -36v99h-165v45h165v97h55v-97h87v-45h-87v-574h-53v91z" />
    <glyph glyph-name="Emacron" unicode="&#x112;" horiz-adv-x="569" 
d="M147 832v46h291v-46h-291zM95 0v696h418v-49h-363v-246h324v-49h-324v-303h363v-49h-418z" />
    <glyph glyph-name="emacron" unicode="&#x113;" horiz-adv-x="533" 
d="M122 659v45h291v-45h-291zM277 484q-141 0 -154 -184h295v4q-1 90 -39.5 135t-101.5 45zM462 73q-26 -40 -72.5 -61t-100.5 -21q-106 0 -165 70t-59 202q0 133 56.5 201t156.5 68q85 0 140.5 -62t55.5 -172v-45h-352q4 -212 167 -212q87 0 137 67z" />
    <glyph glyph-name="Ebreve" unicode="&#x114;" horiz-adv-x="569" 
d="M293 788q-74 0 -116.5 38t-43.5 117h47q1 -61 29 -88.5t84 -27.5t83.5 27.5t28.5 88.5h47q-1 -79 -43.5 -117t-115.5 -38zM95 0v696h418v-49h-363v-246h324v-49h-324v-303h363v-49h-418z" />
    <glyph glyph-name="ebreve" unicode="&#x115;" horiz-adv-x="533" 
d="M267 614q-73 0 -115.5 38t-43.5 117h46q1 -61 29 -88.5t84 -27.5t84 27.5t29 88.5h47q-1 -79 -43.5 -117t-116.5 -38zM277 484q-141 0 -154 -184h295v4q-1 90 -39.5 135t-101.5 45zM462 73q-26 -40 -72.5 -61t-100.5 -21q-106 0 -165 70t-59 202q0 133 56.5 201t156.5 68
q85 0 140.5 -62t55.5 -172v-45h-352q4 -212 167 -212q87 0 137 67z" />
    <glyph glyph-name="Edotaccent" unicode="&#x116;" horiz-adv-x="569" 
d="M293 805q-42 0 -42 41q0 40 42 40q41 0 41 -41q0 -40 -41 -40zM95 0v696h418v-49h-363v-246h324v-49h-324v-303h363v-49h-418z" />
    <glyph glyph-name="edotaccent" unicode="&#x117;" horiz-adv-x="533" 
d="M267 631q-41 0 -41 41q0 40 41 40q42 0 42 -41q0 -40 -42 -40zM277 484q-141 0 -154 -184h295v4q-1 90 -39.5 135t-101.5 45zM462 73q-26 -40 -72.5 -61t-100.5 -21q-106 0 -165 70t-59 202q0 133 56.5 201t156.5 68q85 0 140.5 -62t55.5 -172v-45h-352q4 -212 167 -212
q87 0 137 67z" />
    <glyph glyph-name="Eogonek" unicode="&#x118;" horiz-adv-x="569" 
d="M505 -177q-40 -8 -74 -8q-50 0 -82 24t-32 64q0 53 47 97h-269v696h418v-49h-363v-246h324v-49h-324v-303h363v-49h-106q-47 -37 -47 -83q0 -28 21 -43.5t57 -15.5q35 0 66 9z" />
    <glyph glyph-name="eogonek" unicode="&#x119;" horiz-adv-x="533" 
d="M277 484q-141 0 -154 -184h295v4q-1 90 -39.5 135t-101.5 45zM457 -177q-40 -8 -74 -8q-50 0 -82 24t-32 64q0 48 39 89q-7 -1 -19 -1q-106 0 -165 70t-59 202q0 133 56.5 201t156.5 68q85 0 140.5 -62t55.5 -172v-45h-352q4 -212 167 -212q87 0 137 67l36 -35
q-33 -50 -101 -72q-49 -37 -49 -84q0 -28 21 -43.5t57 -15.5q35 0 66 9z" />
    <glyph glyph-name="Ecaron" unicode="&#x11a;" horiz-adv-x="569" 
d="M271 784q-74 74 -146 129l25 28q73 -46 144 -107q68 62 141 107l25 -28q-81 -63 -144 -129h-45zM95 0v696h418v-49h-363v-246h324v-49h-324v-303h363v-49h-418z" />
    <glyph glyph-name="ecaron" unicode="&#x11b;" horiz-adv-x="533" 
d="M244 610q-69 69 -146 129l25 28q72 -46 143 -106q74 64 142 106l25 -28q-86 -66 -144 -129h-45zM277 484q-141 0 -154 -184h295v4q-1 90 -39.5 135t-101.5 45zM462 73q-26 -40 -72.5 -61t-100.5 -21q-106 0 -165 70t-59 202q0 133 56.5 201t156.5 68q85 0 140.5 -62
t55.5 -172v-45h-352q4 -212 167 -212q87 0 137 67z" />
    <glyph glyph-name="Gcircumflex" unicode="&#x11c;" horiz-adv-x="637" 
d="M183 788l-25 28q76 60 144 129h45q66 -67 146 -129l-26 -28q-66 41 -143 106q-69 -61 -141 -106zM575 291q0 -155 -66.5 -227.5t-183.5 -72.5q-121 0 -191 90t-70 275q0 176 70.5 262.5t191.5 86.5q93 0 151.5 -44.5t77.5 -121.5l-54 -15q-34 131 -176 131
q-205 0 -205 -299q0 -315 205 -315q96 0 145 58t49 195v8h-202v50h258v-61z" />
    <glyph glyph-name="gcircumflex" unicode="&#x11d;" horiz-adv-x="563" 
d="M149 614l-25 28q72 55 144 129h45q75 -73 146 -129l-25 -28q-71 43 -143 107q-70 -62 -142 -107zM273 254q55 0 89.5 29t34.5 84t-34.5 84t-88.5 29t-89 -29t-35 -84t34.5 -84t88.5 -29zM521 -23q0 -75 -67 -119.5t-182 -44.5q-105 0 -157.5 34.5t-52.5 89.5q0 76 87 116
q-68 24 -68 90q0 35 20 63.5t54 41.5q-55 46 -55 121q0 69 49 113t124 44q25 0 44 -4h187v-45q-65 3 -112 12q57 -44 57 -120q0 -71 -49.5 -116t-128.5 -45q-50 0 -89 22q-53 -26 -53 -72q0 -62 88 -62h162q67 0 104.5 -31t37.5 -88zM282 -140q88 0 138 29.5t50 81.5
q0 72 -91 72h-164q-19 0 -28 1q-73 -40 -73 -96q0 -88 168 -88z" />
    <glyph glyph-name="Gbreve" unicode="&#x11e;" horiz-adv-x="637" 
d="M325 788q-73 0 -115.5 38t-43.5 117h46q1 -61 29 -88.5t84 -27.5t84 27.5t29 88.5h47q-1 -79 -43.5 -117t-116.5 -38zM575 291q0 -155 -66.5 -227.5t-183.5 -72.5q-121 0 -191 90t-70 275q0 176 70.5 262.5t191.5 86.5q93 0 151.5 -44.5t77.5 -121.5l-54 -15
q-34 131 -176 131q-205 0 -205 -299q0 -315 205 -315q96 0 145 58t49 195v8h-202v50h258v-61z" />
    <glyph glyph-name="gbreve" unicode="&#x11f;" horiz-adv-x="563" 
d="M292 614q-74 0 -116.5 38t-43.5 117h47q1 -61 29 -88.5t84 -27.5t83.5 27.5t28.5 88.5h47q-1 -79 -43.5 -117t-115.5 -38zM273 254q55 0 89.5 29t34.5 84t-34.5 84t-88.5 29t-89 -29t-35 -84t34.5 -84t88.5 -29zM521 -23q0 -75 -67 -119.5t-182 -44.5q-105 0 -157.5 34.5
t-52.5 89.5q0 76 87 116q-68 24 -68 90q0 35 20 63.5t54 41.5q-55 46 -55 121q0 69 49 113t124 44q25 0 44 -4h187v-45q-65 3 -112 12q57 -44 57 -120q0 -71 -49.5 -116t-128.5 -45q-50 0 -89 22q-53 -26 -53 -72q0 -62 88 -62h162q67 0 104.5 -31t37.5 -88zM282 -140
q88 0 138 29.5t50 81.5q0 72 -91 72h-164q-19 0 -28 1q-73 -40 -73 -96q0 -88 168 -88z" />
    <glyph glyph-name="Gdotaccent" unicode="&#x120;" horiz-adv-x="637" 
d="M325 805q-41 0 -41 41q0 40 41 40q42 0 42 -41q0 -40 -42 -40zM575 291q0 -155 -66.5 -227.5t-183.5 -72.5q-121 0 -191 90t-70 275q0 176 70.5 262.5t191.5 86.5q93 0 151.5 -44.5t77.5 -121.5l-54 -15q-34 131 -176 131q-205 0 -205 -299q0 -315 205 -315q96 0 145 58
t49 195v8h-202v50h258v-61z" />
    <glyph glyph-name="gdotaccent" unicode="&#x121;" horiz-adv-x="563" 
d="M292 631q-42 0 -42 41q0 40 42 40q41 0 41 -41q0 -40 -41 -40zM273 254q55 0 89.5 29t34.5 84t-34.5 84t-88.5 29t-89 -29t-35 -84t34.5 -84t88.5 -29zM521 -23q0 -75 -67 -119.5t-182 -44.5q-105 0 -157.5 34.5t-52.5 89.5q0 76 87 116q-68 24 -68 90q0 35 20 63.5
t54 41.5q-55 46 -55 121q0 69 49 113t124 44q25 0 44 -4h187v-45q-65 3 -112 12q57 -44 57 -120q0 -71 -49.5 -116t-128.5 -45q-50 0 -89 22q-53 -26 -53 -72q0 -62 88 -62h162q67 0 104.5 -31t37.5 -88zM282 -140q88 0 138 29.5t50 81.5q0 72 -91 72h-164q-19 0 -28 1
q-73 -40 -73 -96q0 -88 168 -88z" />
    <glyph glyph-name="Gcommaaccent" unicode="&#x122;" horiz-adv-x="637" 
d="M575 291q0 -155 -66.5 -227.5t-183.5 -72.5q-121 0 -191 90t-70 275q0 176 70.5 262.5t191.5 86.5q93 0 151.5 -44.5t77.5 -121.5l-54 -15q-34 131 -176 131q-205 0 -205 -299q0 -315 205 -315q96 0 145 58t49 195v8h-202v50h258v-61zM249 -236q40 90 58 158h79
q-37 -79 -94 -158h-43z" />
    <glyph glyph-name="gcommaaccent" unicode="&#x123;" horiz-adv-x="563" 
d="M256 605q39 83 95 157h41q-36 -78 -58 -157h-78zM273 254q55 0 89.5 29t34.5 84t-34.5 84t-88.5 29t-89 -29t-35 -84t34.5 -84t88.5 -29zM521 -23q0 -75 -67 -119.5t-182 -44.5q-105 0 -157.5 34.5t-52.5 89.5q0 76 87 116q-68 24 -68 90q0 35 20 63.5t54 41.5
q-55 46 -55 121q0 69 49 113t124 44q25 0 44 -4h187v-45q-65 3 -112 12q57 -44 57 -120q0 -71 -49.5 -116t-128.5 -45q-50 0 -89 22q-53 -26 -53 -72q0 -62 88 -62h162q67 0 104.5 -31t37.5 -88zM282 -140q88 0 138 29.5t50 81.5q0 72 -91 72h-164q-19 0 -28 1
q-73 -40 -73 -96q0 -88 168 -88z" />
    <glyph glyph-name="Hcircumflex" unicode="&#x124;" horiz-adv-x="654" 
d="M185 788l-25 28q76 60 144 129h45q66 -67 146 -129l-25 -28q-66 40 -144 106q-69 -61 -141 -106zM95 0v696h55v-296h354v296h56v-696h-56v352h-354v-352h-55z" />
    <glyph glyph-name="hcircumflex" unicode="&#x125;" 
d="M-19 788l-26 28q76 58 145 129h44q69 -69 147 -129l-26 -28q-62 38 -143 106q-75 -65 -141 -106zM150 0h-55v716h55v-297q72 113 174 113q71 0 112.5 -47t41.5 -127v-358h-56v346q0 64 -30 98.5t-83 34.5q-96 0 -159 -112v-367z" />
    <glyph glyph-name="Hbar" unicode="&#x126;" horiz-adv-x="654" 
d="M150 353h354v164h-354v-164zM150 303v-303h-55v517h-79v50h79v129h55v-129h354v129h56v-129h77v-50h-77v-517h-56v303h-354z" />
    <glyph glyph-name="hbar" unicode="&#x127;" 
d="M150 347v-347h-55v574h-79v45h79v97h55v-97h173v-45h-173v-176q71 113 174 113q71 0 112.5 -47t41.5 -127v-337h-56v325q0 64 -30 98.5t-83 34.5q-97 0 -159 -111z" />
    <glyph glyph-name="Itilde" unicode="&#x128;" horiz-adv-x="428" 
d="M284 790q-27 0 -45 15.5t-36 44.5q-1 2 -5.5 9t-6.5 9t-6 8t-6 8t-6 6.5t-7 6.5t-6.5 4t-7.5 3t-8 1q-45 0 -45 -96v-10h-48v13q0 63 25.5 101.5t71.5 38.5q29 0 46 -15t36 -44q28 -45 43 -53q8 -4 15 -4q44 0 44 97v10h48v-13q0 -63 -25.5 -101.5t-70.5 -38.5zM47 0v49
h139v598h-139v49h334v-49h-139v-598h139v-49h-334z" />
    <glyph glyph-name="itilde" unicode="&#x129;" horiz-adv-x="266" 
d="M202 616q-44 0 -80 60q-1 2 -5 8t-5.5 8.5t-5.5 7.5l-6 7.5t-5.5 6.5t-5.5 6t-6 5t-6.5 4t-6 2t-7.5 1q-21 0 -33.5 -25t-12.5 -72v-10h-47v13q0 63 25.5 101.5t71.5 38.5q29 0 46 -15t35 -43q11 -17 14 -21.5t12 -16t16.5 -15.5t15.5 -4q45 0 45 96v10h48v-13
q0 -63 -25.5 -101.5t-71.5 -38.5zM95 0v522h55v-522h-55z" />
    <glyph glyph-name="Imacron" unicode="&#x12a;" horiz-adv-x="428" 
d="M71 832v46h291v-46h-291zM47 0v49h139v598h-139v49h334v-49h-139v-598h139v-49h-334z" />
    <glyph glyph-name="imacron" unicode="&#x12b;" horiz-adv-x="266" 
d="M-11 659v45h290v-45h-290zM95 0v522h55v-522h-55z" />
    <glyph glyph-name="Ibreve" unicode="&#x12c;" horiz-adv-x="428" 
d="M210 788q-73 0 -115.5 38t-43.5 117h47q1 -61 28.5 -88.5t83.5 -27.5t84 27.5t29 88.5h47q-1 -79 -43.5 -117t-116.5 -38zM47 0v49h139v598h-139v49h334v-49h-139v-598h139v-49h-334z" />
    <glyph glyph-name="ibreve" unicode="&#x12d;" horiz-adv-x="266" 
d="M133 614q-73 0 -115.5 38t-43.5 117h46q1 -61 29 -88.5t84 -27.5t84 27.5t29 88.5h47q-1 -79 -43.5 -117t-116.5 -38zM95 0v522h55v-522h-55z" />
    <glyph glyph-name="Iogonek" unicode="&#x12e;" horiz-adv-x="428" 
d="M339 -177q-40 -8 -74 -8q-50 0 -82 24t-32 64q0 54 48 97h-152v49h139v598h-139v49h334v-49h-139v-598h139v-49h-140q-47 -38 -47 -83q0 -27 21 -43t57 -16q35 0 66 9z" />
    <glyph glyph-name="iogonek" unicode="&#x12f;" horiz-adv-x="266" 
d="M122 632q-42 0 -42 39q0 41 42 41t42 -41q0 -39 -42 -39zM227 -177q-42 -8 -75 -8q-50 0 -81.5 24t-31.5 64q0 60 55 104v515h56v-522h-21q-48 -38 -48 -83q0 -28 21.5 -43.5t57.5 -15.5q34 0 66 9z" />
    <glyph glyph-name="Idotaccent" unicode="&#x130;" horiz-adv-x="428" 
d="M214 805q-41 0 -41 41q0 40 41 40q42 0 42 -41q0 -40 -42 -40zM47 0v49h139v598h-139v49h334v-49h-139v-598h139v-49h-334z" />
    <glyph glyph-name="dotlessi" unicode="&#x131;" horiz-adv-x="244" 
d="M95 0v522h55v-522h-55z" />
    <glyph glyph-name="IJ" unicode="&#x132;" horiz-adv-x="950" 
d="M47 0v49h139v598h-139v49h334v-49h-139v-598h139v-49h-334zM651 -9q-89 0 -146.5 57.5t-63.5 162.5l56 7q14 -177 156 -177q75 0 114 49t39 130v476h56v-475q0 -103 -55.5 -166.5t-155.5 -63.5z" />
    <glyph glyph-name="ij" unicode="&#x133;" horiz-adv-x="491" 
d="M122 633q-42 0 -42 41q0 40 42 40t42 -41q0 -40 -42 -40zM360 632q-42 0 -42 41q0 40 42 40q41 0 41 -41q0 -40 -41 -40zM95 0v522h55v-522h-55zM257 -181q-35 0 -86 17l13 51q42 -17 69 -17q81 0 81 93v559h56v-557q0 -72 -37 -109t-96 -37z" />
    <glyph glyph-name="Jcircumflex" unicode="&#x134;" horiz-adv-x="536" 
d="M266 788l-25 28q72 55 144 129h45q72 -72 146 -129l-25 -28q-68 42 -143 106q-73 -62 -142 -106zM240 -9q-90 0 -147 57.5t-64 162.5l56 7q15 -177 157 -177q75 0 113.5 49t38.5 130v476h56v-475q0 -103 -55 -166.5t-155 -63.5z" />
    <glyph glyph-name="jcircumflex" unicode="&#x135;" horiz-adv-x="269" 
d="M-8 614l-26 28q69 53 145 129h44q76 -75 147 -129l-26 -28q-69 43 -143 107q-72 -64 -141 -107zM36 -181q-34 0 -87 17l13 51q44 -17 70 -17q81 0 81 93v559h56v-557q0 -72 -37 -109t-96 -37z" />
    <glyph glyph-name="Kcommaaccent" unicode="&#x136;" horiz-adv-x="588" 
d="M485 -1l-224 371l-111 -126v-244h-55v696h55v-380l335 380l61 -1l-248 -283l252 -411zM200 -236q37 81 58 158h79q-37 -79 -94 -158h-43z" />
    <glyph glyph-name="kcommaaccent" unicode="&#x137;" horiz-adv-x="508" 
d="M415 -1l-166 266l-99 -119v-146h-55v716h55v-501l251 308l62 -2l-178 -213l191 -307zM189 -236q40 90 58 158h79q-37 -79 -94 -158h-43z" />
    <glyph glyph-name="kgreenlandic" unicode="&#x138;" horiz-adv-x="508" 
d="M415 -1l-166 266l-99 -119v-146h-55v522h55v-307l251 308l62 -2l-178 -213l191 -307z" />
    <glyph glyph-name="Lacute" unicode="&#x139;" horiz-adv-x="494" 
d="M72 776q56 76 99 159h81q-60 -84 -134 -159h-46zM95 0v696h55v-646h310v-50h-365z" />
    <glyph glyph-name="lacute" unicode="&#x13a;" horiz-adv-x="244" 
d="M89 776q61 83 99 159h81q-55 -78 -134 -159h-46zM95 0v716h55v-716h-55z" />
    <glyph glyph-name="Lcommaaccent" unicode="&#x13b;" horiz-adv-x="494" 
d="M95 0v696h55v-646h310v-50h-365zM192 -236q40 90 58 158h79q-37 -79 -94 -158h-43z" />
    <glyph glyph-name="lcommaaccent" unicode="&#x13c;" horiz-adv-x="244" 
d="M95 0v716h55v-716h-55zM35 -236q37 84 57 158h80q-43 -87 -95 -158h-42z" />
    <glyph glyph-name="Lcaron" unicode="&#x13d;" horiz-adv-x="494" 
d="M340 511q33 97 41 185h60q-16 -105 -62 -185h-39zM95 0v696h55v-646h310v-50h-365z" />
    <glyph glyph-name="lcaron" unicode="&#x13e;" horiz-adv-x="266" 
d="M227 562q32 99 40 185h60q-16 -105 -62 -185h-38zM95 0v716h55v-716h-55z" />
    <glyph glyph-name="Ldot" unicode="&#x13f;" horiz-adv-x="494" 
d="M95 0v696h55v-646h310v-50h-365zM364 366q-42 0 -42 41q0 40 42 40q41 0 41 -42q0 -39 -41 -39z" />
    <glyph glyph-name="ldot" unicode="&#x140;" horiz-adv-x="258" 
d="M95 0v716h55v-716h-55zM258 282q-42 0 -42 40q0 41 42 41t42 -42q0 -39 -42 -39z" />
    <glyph glyph-name="Lslash" unicode="&#x141;" horiz-adv-x="499" 
d="M465 0h-365v324l-80 -28v51l80 28v321h55v-302l169 60v-51l-169 -59v-294h310v-50z" />
    <glyph glyph-name="lslash" unicode="&#x142;" horiz-adv-x="306" 
d="M122 0v312l-90 -33v51l90 33v353h63v-331l87 33v-51l-87 -32v-335h-63z" />
    <glyph glyph-name="Nacute" unicode="&#x143;" horiz-adv-x="658" 
d="M271 776q55 76 99 159h81q-55 -78 -134 -159h-46zM563 -1h-66l-351 615v-614h-51v696h66l350 -614v614h52v-697z" />
    <glyph glyph-name="nacute" unicode="&#x144;" 
d="M245 603q56 76 98 158h82q-57 -80 -134 -158h-46zM150 0h-56v522h56v-104q71 114 175 114q70 0 111.5 -47t41.5 -127v-358h-56v345q0 64 -30 99t-83 35q-96 0 -159 -112v-367z" />
    <glyph glyph-name="Ncommaaccent" unicode="&#x145;" horiz-adv-x="658" 
d="M563 -1h-66l-351 615v-614h-51v696h66l350 -614v614h52v-697zM235 -236q36 82 58 158h79q-43 -87 -95 -158h-42z" />
    <glyph glyph-name="ncommaaccent" unicode="&#x146;" 
d="M150 0h-56v522h56v-104q71 114 175 114q70 0 111.5 -47t41.5 -127v-358h-56v345q0 64 -30 99t-83 35q-96 0 -159 -112v-367zM187 -236q40 90 58 158h79q-37 -79 -94 -158h-43z" />
    <glyph glyph-name="Ncaron" unicode="&#x147;" horiz-adv-x="658" 
d="M324 784q-81 79 -146 129l25 28q73 -46 144 -107q68 62 141 107l25 -28q-77 -59 -144 -129h-45zM563 -1h-66l-351 615v-614h-51v696h66l350 -614v614h52v-697z" />
    <glyph glyph-name="ncaron" unicode="&#x148;" 
d="M267 610q-68 69 -146 129l25 28q70 -45 144 -106q70 62 141 106l25 -28q-81 -62 -144 -129h-45zM150 0h-56v522h56v-104q71 114 175 114q70 0 111.5 -47t41.5 -127v-358h-56v345q0 64 -30 99t-83 35q-96 0 -159 -112v-367z" />
    <glyph glyph-name="napostrophe" unicode="&#x149;" 
d="M9 603q55 74 99 158h81q-61 -86 -134 -158h-46zM150 0h-56v522h56v-104q71 114 175 114q70 0 111.5 -47t41.5 -127v-358h-56v345q0 64 -30 99t-83 35q-96 0 -159 -112v-367z" />
    <glyph glyph-name="Eng" unicode="&#x14a;" horiz-adv-x="653" 
d="M426 -181q-33 0 -86 17l14 51q42 -17 69 -17q81 0 81 93v541q0 72 -42 110t-115 38q-62 0 -113 -33.5t-84 -92.5v-526h-55v696h55v-119q80 128 213 128q91 0 144 -51t53 -137v-552q0 -72 -37 -109t-97 -37z" />
    <glyph glyph-name="eng" unicode="&#x14b;" 
d="M345 -181q-34 0 -87 17l13 51q44 -17 70 -17q81 0 81 93v383q0 64 -30 98.5t-83 34.5q-96 0 -159 -112v-367h-55v522h55v-103q72 113 174 113q71 0 112.5 -47t41.5 -127v-393q0 -72 -37 -109t-96 -37z" />
    <glyph glyph-name="Omacron" unicode="&#x14c;" horiz-adv-x="650" 
d="M180 832v46h291v-46h-291zM326 -9q-122 0 -192 88.5t-70 276.5q0 177 70.5 263t192.5 86q120 0 189.5 -86t69.5 -263q0 -188 -69 -276.5t-191 -88.5zM326 41q98 0 151 73t53 242q0 299 -204 299q-206 0 -206 -299q0 -169 53.5 -242t152.5 -73z" />
    <glyph glyph-name="omacron" unicode="&#x14d;" horiz-adv-x="541" 
d="M126 659v45h291v-45h-291zM270 -9q-96 0 -150.5 67.5t-54.5 202.5q0 134 55 202.5t151 68.5q94 0 149.5 -69t55.5 -203t-55 -201.5t-151 -67.5zM270 41q149 0 149 219q0 222 -149 222q-148 0 -148 -221q0 -220 148 -220z" />
    <glyph glyph-name="Obreve" unicode="&#x14e;" horiz-adv-x="650" 
d="M325 788q-73 0 -115.5 38t-43.5 117h46q1 -61 29 -88.5t84 -27.5t84 27.5t29 88.5h47q-1 -79 -43.5 -117t-116.5 -38zM326 -9q-122 0 -192 88.5t-70 276.5q0 177 70.5 263t192.5 86q120 0 189.5 -86t69.5 -263q0 -188 -69 -276.5t-191 -88.5zM326 41q98 0 151 73t53 242
q0 299 -204 299q-206 0 -206 -299q0 -169 53.5 -242t152.5 -73z" />
    <glyph glyph-name="obreve" unicode="&#x14f;" horiz-adv-x="541" 
d="M271 614q-73 0 -115.5 38t-43.5 117h47q1 -61 28.5 -88.5t83.5 -27.5t84 27.5t29 88.5h47q-1 -79 -43.5 -117t-116.5 -38zM270 -9q-96 0 -150.5 67.5t-54.5 202.5q0 134 55 202.5t151 68.5q94 0 149.5 -69t55.5 -203t-55 -201.5t-151 -67.5zM270 41q149 0 149 219
q0 222 -149 222q-148 0 -148 -221q0 -220 148 -220z" />
    <glyph glyph-name="Ohungarumlaut" unicode="&#x150;" horiz-adv-x="650" 
d="M221 776q44 90 68 159h64q-30 -60 -96 -159h-36zM367 776q55 117 70 159h63q-27 -55 -97 -159h-36zM326 -9q-122 0 -192 88.5t-70 276.5q0 177 70.5 263t192.5 86q120 0 189.5 -86t69.5 -263q0 -188 -69 -276.5t-191 -88.5zM326 41q98 0 151 73t53 242q0 299 -204 299
q-206 0 -206 -299q0 -169 53.5 -242t152.5 -73z" />
    <glyph glyph-name="ohungarumlaut" unicode="&#x151;" horiz-adv-x="541" 
d="M167 603q43 87 68 158h64q-31 -64 -96 -158h-36zM313 603q54 112 70 158h63q-26 -53 -96 -158h-37zM270 -9q-96 0 -150.5 67.5t-54.5 202.5q0 134 55 202.5t151 68.5q94 0 149.5 -69t55.5 -203t-55 -201.5t-151 -67.5zM270 41q149 0 149 219q0 222 -149 222
q-148 0 -148 -221q0 -220 148 -220z" />
    <glyph glyph-name="OE" unicode="&#x152;" horiz-adv-x="967" 
d="M358 0q-130 0 -207.5 84.5t-77.5 267.5q0 177 77.5 260.5t206.5 83.5h555v-49h-352v-246h312v-49h-312v-303h352v-49h-554zM359 50h145v597h-146q-106 0 -167.5 -70t-61.5 -225q0 -302 230 -302z" />
    <glyph glyph-name="oe" unicode="&#x153;" horiz-adv-x="893" 
d="M632 484q-143 0 -155 -184h295v4q-1 90 -39.5 135t-100.5 45zM270 41q149 0 149 219q0 222 -149 222q-148 0 -148 -221q0 -220 148 -220zM817 73q-28 -40 -74.5 -61t-100.5 -21q-143 0 -193 133q-46 -133 -179 -133q-96 0 -150.5 67.5t-54.5 202.5q0 134 55 202.5
t151 68.5q129 0 177 -131q46 131 185 131q84 0 139.5 -62t55.5 -172v-45h-352q3 -212 166 -212q90 0 137 67z" />
    <glyph glyph-name="Racute" unicode="&#x154;" horiz-adv-x="615" 
d="M238 776q61 87 98 159h82q-56 -77 -134 -159h-46zM150 326h184q74 0 115.5 43.5t41.5 115.5q0 76 -41.5 119t-115.5 43h-184v-321zM150 0h-55v696h241q99 0 155 -56.5t56 -154.5q0 -78 -47 -135t-127 -69l182 -281h-64l-180 278h-161v-278z" />
    <glyph glyph-name="racute" unicode="&#x155;" horiz-adv-x="394" 
d="M179 603q60 83 98 158h82q-57 -80 -134 -158h-46zM150 0h-56v522h56v-94q63 103 160 103q38 0 62 -13l-12 -50q-26 11 -58 11q-94 0 -152 -100v-379z" />
    <glyph glyph-name="Rcommaaccent" unicode="&#x156;" horiz-adv-x="615" 
d="M150 326h184q74 0 115.5 43.5t41.5 115.5q0 76 -41.5 119t-115.5 43h-184v-321zM150 0h-55v696h241q99 0 155 -56.5t56 -154.5q0 -78 -47 -135t-127 -69l182 -281h-64l-180 278h-161v-278zM223 -236q37 84 57 158h80q-43 -87 -95 -158h-42z" />
    <glyph glyph-name="rcommaaccent" unicode="&#x157;" horiz-adv-x="394" 
d="M150 0h-56v522h56v-94q63 103 160 103q38 0 62 -13l-12 -50q-26 11 -58 11q-94 0 -152 -100v-379zM33 -236q37 84 57 158h80q-43 -87 -95 -158h-42z" />
    <glyph glyph-name="Rcaron" unicode="&#x158;" horiz-adv-x="615" 
d="M291 784q-78 76 -147 129l26 28q69 -44 143 -107q74 65 141 107l26 -28q-80 -61 -145 -129h-44zM150 326h184q74 0 115.5 43.5t41.5 115.5q0 76 -41.5 119t-115.5 43h-184v-321zM150 0h-55v696h241q99 0 155 -56.5t56 -154.5q0 -78 -47 -135t-127 -69l182 -281h-64
l-180 278h-161v-278z" />
    <glyph glyph-name="rcaron" unicode="&#x159;" horiz-adv-x="394" 
d="M199 610q-74 74 -146 129l25 28q70 -45 144 -106q70 62 141 106l25 -28q-81 -62 -144 -129h-45zM150 0h-56v522h56v-94q63 103 160 103q38 0 62 -13l-12 -50q-26 11 -58 11q-94 0 -152 -100v-379z" />
    <glyph glyph-name="Sacute" unicode="&#x15a;" horiz-adv-x="597" 
d="M245 776q57 79 98 159h82q-56 -77 -134 -159h-46zM306 -5q-175 0 -254 134l43 32q65 -117 211 -117q80 0 126.5 35t46.5 99q0 61 -42 93.5t-151 57.5t-157.5 69t-48.5 122q0 81 57.5 130.5t151.5 49.5q155 0 227 -123l-41 -31q-69 104 -188 104q-70 0 -111 -32.5
t-41 -94.5q0 -58 37 -89.5t138 -54.5q118 -25 170.5 -71t52.5 -126q0 -84 -63 -135.5t-164 -51.5z" />
    <glyph glyph-name="sacute" unicode="&#x15b;" horiz-adv-x="498" 
d="M184 603q55 74 99 158h81q-57 -80 -134 -158h-46zM254 -9q-118 0 -197 63l27 43q70 -56 170 -56q57 0 95 22.5t38 69.5q0 44 -30 64t-108 37q-93 21 -135 54t-42 99q0 67 49 106t122 39q102 0 181 -65l-27 -43q-69 58 -154 58q-51 0 -83.5 -23t-32.5 -69q0 -44 30 -65
t109 -38q91 -19 133 -51.5t42 -98.5q0 -69 -53.5 -107.5t-133.5 -38.5z" />
    <glyph glyph-name="Scircumflex" unicode="&#x15c;" horiz-adv-x="597" 
d="M167 788l-26 28q76 58 145 129h44q69 -69 147 -129l-26 -28q-62 38 -143 106q-71 -62 -141 -106zM306 -5q-175 0 -254 134l43 32q65 -117 211 -117q80 0 126.5 35t46.5 99q0 61 -42 93.5t-151 57.5t-157.5 69t-48.5 122q0 81 57.5 130.5t151.5 49.5q155 0 227 -123
l-41 -31q-69 104 -188 104q-70 0 -111 -32.5t-41 -94.5q0 -58 37 -89.5t138 -54.5q118 -25 170.5 -71t52.5 -126q0 -84 -63 -135.5t-164 -51.5z" />
    <glyph glyph-name="scircumflex" unicode="&#x15d;" horiz-adv-x="498" 
d="M96 614l-26 28q72 55 144 129h45q75 -73 146 -129l-25 -28q-65 40 -143 107q-69 -61 -141 -107zM254 -9q-118 0 -197 63l27 43q70 -56 170 -56q57 0 95 22.5t38 69.5q0 44 -30 64t-108 37q-93 21 -135 54t-42 99q0 67 49 106t122 39q102 0 181 -65l-27 -43
q-69 58 -154 58q-51 0 -83.5 -23t-32.5 -69q0 -44 30 -65t109 -38q91 -19 133 -51.5t42 -98.5q0 -69 -53.5 -107.5t-133.5 -38.5z" />
    <glyph glyph-name="Scedilla" unicode="&#x15e;" horiz-adv-x="597" 
d="M310 -185q-73 0 -113 52l31 27q25 -41 83 -41q66 0 66 42q0 45 -86 49v51q-164 6 -239 134l43 32q65 -117 211 -117q80 0 126.5 35t46.5 99q0 61 -42 93.5t-151 57.5t-157.5 69t-48.5 122q0 81 57.5 130.5t151.5 49.5q155 0 227 -123l-41 -31q-69 104 -188 104
q-70 0 -111 -32.5t-41 -94.5q0 -58 37 -89.5t138 -54.5q118 -25 170.5 -71t52.5 -126q0 -79 -55.5 -129.5t-147.5 -56.5v-24q45 -6 71 -26.5t26 -51.5q0 -39 -34 -59t-83 -20z" />
    <glyph glyph-name="scedilla" unicode="&#x15f;" horiz-adv-x="498" 
d="M259 -185q-73 0 -113 52l31 27q25 -41 83 -41q66 0 66 42q0 45 -86 49v47q-109 5 -183 63l27 43q70 -56 170 -56q57 0 95 22.5t38 69.5q0 44 -30 64t-108 37q-93 21 -135 54t-42 99q0 67 49 106t122 39q102 0 181 -65l-27 -43q-69 58 -154 58q-51 0 -83.5 -23t-32.5 -69
q0 -44 30 -65t109 -38q91 -19 133 -51.5t42 -98.5q0 -63 -45.5 -101t-116.5 -44v-20q45 -6 71 -26.5t26 -51.5q0 -39 -34 -59t-83 -20z" />
    <glyph glyph-name="Scaron" unicode="&#x160;" horiz-adv-x="597" 
d="M277 784q-74 74 -146 129l26 28q73 -48 143 -107q68 62 141 107l25 -28q-81 -63 -144 -129h-45zM306 -5q-175 0 -254 134l43 32q65 -117 211 -117q80 0 126.5 35t46.5 99q0 61 -42 93.5t-151 57.5t-157.5 69t-48.5 122q0 81 57.5 130.5t151.5 49.5q155 0 227 -123
l-41 -31q-69 104 -188 104q-70 0 -111 -32.5t-41 -94.5q0 -58 37 -89.5t138 -54.5q118 -25 170.5 -71t52.5 -126q0 -84 -63 -135.5t-164 -51.5z" />
    <glyph glyph-name="scaron" unicode="&#x161;" horiz-adv-x="498" 
d="M216 610q-68 69 -146 129l26 28q70 -46 143 -106q76 66 141 106l25 -28q-86 -67 -144 -129h-45zM254 -9q-118 0 -197 63l27 43q70 -56 170 -56q57 0 95 22.5t38 69.5q0 44 -30 64t-108 37q-93 21 -135 54t-42 99q0 67 49 106t122 39q102 0 181 -65l-27 -43
q-69 58 -154 58q-51 0 -83.5 -23t-32.5 -69q0 -44 30 -65t109 -38q91 -19 133 -51.5t42 -98.5q0 -69 -53.5 -107.5t-133.5 -38.5z" />
    <glyph glyph-name="Tcedilla" unicode="&#x162;" horiz-adv-x="545" 
d="M264 -185q-73 0 -113 52l31 27q25 -41 83 -41q66 0 66 42q0 45 -86 49v703h-213v49h481v-49h-212v-647h-16v-28q44 -6 70 -26.5t26 -51.5q0 -39 -34 -59t-83 -20z" />
    <glyph glyph-name="tcedilla" unicode="&#x163;" horiz-adv-x="405" 
d="M255 -185q-73 0 -113 52l31 27q25 -41 83 -41q66 0 66 42q0 45 -86 49v52q-101 23 -101 165v312h-107v49h107v144h56v-144h171v-49h-171v-315q0 -58 23.5 -86.5t64.5 -28.5q37 0 80 18l12 -49q-49 -20 -96 -20v-20q45 -6 71 -26.5t26 -51.5q0 -39 -34 -59t-83 -20z" />
    <glyph glyph-name="Tcaron" unicode="&#x164;" horiz-adv-x="545" 
d="M252 784q-81 79 -146 129l25 28q75 -48 143 -107q71 63 142 107l25 -28q-82 -63 -144 -129h-45zM245 0v647h-213v49h481v-49h-212v-647h-56z" />
    <glyph glyph-name="tcaron" unicode="&#x165;" horiz-adv-x="405" 
d="M296 625q32 99 40 185h60q-16 -105 -62 -185h-38zM275 -8q-68 0 -104 43t-36 126v312h-107v49h107v144h56v-144h171v-49h-171v-315q0 -58 23.5 -86.5t64.5 -28.5q37 0 80 18l12 -49q-49 -20 -96 -20z" />
    <glyph glyph-name="Tbar" unicode="&#x166;" horiz-adv-x="545" 
d="M468 290h-167v-290h-56v290h-168v50h168v307h-213v49h481v-49h-212v-307h167v-50z" />
    <glyph glyph-name="tbar" unicode="&#x167;" horiz-adv-x="405" 
d="M371 12q-49 -20 -96 -20q-68 0 -104 43t-36 126v105h-107v50h107v157h-107v49h107v144h56v-144h171v-49h-171v-157h174v-50h-174v-108q0 -58 23.5 -86.5t64.5 -28.5q37 0 80 18z" />
    <glyph glyph-name="Utilde" unicode="&#x168;" horiz-adv-x="645" 
d="M390 790q-44 0 -80 60q-14 20 -19 27.5t-17 17.5t-23 10q-21 0 -33.5 -24.5t-12.5 -71.5v-10h-47v13q0 63 25.5 101.5t71.5 38.5q29 0 46 -15t35 -44q2 -2 7 -10t7 -10.5t6.5 -9t7 -9.5t6.5 -7t7.5 -6t8 -3.5t8.5 -1.5q45 0 45 97v10h48v-13q0 -63 -25.5 -101.5
t-71.5 -38.5zM322 -9q-111 0 -174 71.5t-63 182.5v451h56v-452q0 -90 45.5 -146.5t135.5 -56.5q91 0 136.5 56.5t45.5 146.5v452h56v-451q0 -111 -63 -182.5t-175 -71.5z" />
    <glyph glyph-name="utilde" unicode="&#x169;" 
d="M352 616q-27 0 -45 15.5t-36 44.5q-2 3 -6.5 10t-6.5 10t-6.5 9.5t-7.5 9t-7 6.5t-7.5 6t-8 3.5t-9.5 1.5q-45 0 -45 -97v-10h-48v13q0 63 25.5 101.5t71.5 38.5q29 0 46 -14.5t36 -43.5q12 -19 18 -28t17.5 -19t22.5 -10q44 0 44 96v10h48v-13q0 -63 -25.5 -101.5
t-70.5 -38.5zM418 522h56v-522h-56v104q-71 -113 -174 -113q-71 0 -112.5 47t-41.5 126v358h56v-345q0 -64 30 -98.5t83 -34.5q98 0 159 111v367z" />
    <glyph glyph-name="Umacron" unicode="&#x16a;" horiz-adv-x="645" 
d="M177 832v46h290v-46h-290zM322 -9q-111 0 -174 71.5t-63 182.5v451h56v-452q0 -90 45.5 -146.5t135.5 -56.5q91 0 136.5 56.5t45.5 146.5v452h56v-451q0 -111 -63 -182.5t-175 -71.5z" />
    <glyph glyph-name="umacron" unicode="&#x16b;" 
d="M138 659v45h291v-45h-291zM418 522h56v-522h-56v104q-71 -113 -174 -113q-71 0 -112.5 47t-41.5 126v358h56v-345q0 -64 30 -98.5t83 -34.5q98 0 159 111v367z" />
    <glyph glyph-name="Ubreve" unicode="&#x16c;" horiz-adv-x="645" 
d="M322 788q-73 0 -115.5 38t-43.5 117h46q1 -61 29 -88.5t84 -27.5t84 27.5t29 88.5h47q-1 -79 -43.5 -117t-116.5 -38zM322 -9q-111 0 -174 71.5t-63 182.5v451h56v-452q0 -90 45.5 -146.5t135.5 -56.5q91 0 136.5 56.5t45.5 146.5v452h56v-451q0 -111 -63 -182.5
t-175 -71.5z" />
    <glyph glyph-name="ubreve" unicode="&#x16d;" 
d="M284 614q-74 0 -116.5 38t-43.5 117h47q1 -61 29 -88.5t84 -27.5t83.5 27.5t28.5 88.5h47q-1 -79 -43.5 -117t-115.5 -38zM418 522h56v-522h-56v104q-71 -113 -174 -113q-71 0 -112.5 47t-41.5 126v358h56v-345q0 -64 30 -98.5t83 -34.5q98 0 159 111v367z" />
    <glyph glyph-name="Uring" unicode="&#x16e;" horiz-adv-x="645" 
d="M322 776q-54 0 -85 31.5t-31 89.5q0 60 31 92t85 32t85 -32t31 -92q0 -58 -31 -89.5t-85 -31.5zM322 814q74 0 74 83q0 42 -19 64.5t-55 22.5t-55 -22.5t-19 -64.5q0 -83 74 -83zM322 -9q-111 0 -174 71.5t-63 182.5v451h56v-452q0 -90 45.5 -146.5t135.5 -56.5
q91 0 136.5 56.5t45.5 146.5v452h56v-451q0 -111 -63 -182.5t-175 -71.5z" />
    <glyph glyph-name="uring" unicode="&#x16f;" 
d="M284 603q-54 0 -85 31t-31 90t31 91.5t85 32.5q53 0 84 -32.5t31 -91.5t-30.5 -90t-84.5 -31zM284 640q35 0 54.5 22t19.5 62q0 41 -19.5 63.5t-54.5 22.5q-36 0 -55.5 -22.5t-19.5 -63.5q0 -40 19.5 -62t55.5 -22zM418 522h56v-522h-56v104q-71 -113 -174 -113
q-71 0 -112.5 47t-41.5 126v358h56v-345q0 -64 30 -98.5t83 -34.5q98 0 159 111v367z" />
    <glyph glyph-name="Uhungarumlaut" unicode="&#x170;" horiz-adv-x="645" 
d="M217 776q44 86 69 159h64q-30 -60 -96 -159h-37zM364 776q55 117 70 159h63q-27 -55 -97 -159h-36zM322 -9q-111 0 -174 71.5t-63 182.5v451h56v-452q0 -90 45.5 -146.5t135.5 -56.5q91 0 136.5 56.5t45.5 146.5v452h56v-451q0 -111 -63 -182.5t-175 -71.5z" />
    <glyph glyph-name="uhungarumlaut" unicode="&#x171;" 
d="M179 603q47 94 68 158h64q-28 -58 -96 -158h-36zM325 603q49 97 70 158h63q-26 -53 -96 -158h-37zM418 522h56v-522h-56v104q-71 -113 -174 -113q-71 0 -112.5 47t-41.5 126v358h56v-345q0 -64 30 -98.5t83 -34.5q98 0 159 111v367z" />
    <glyph glyph-name="Uogonek" unicode="&#x172;" horiz-adv-x="645" 
d="M369 -187q-50 0 -82 24t-32 64q0 50 41 91q-100 9 -155.5 79t-55.5 174v451h56v-452q0 -90 45.5 -146.5t135.5 -56.5q91 0 136.5 56.5t45.5 146.5v452h56v-451q0 -107 -58.5 -178t-164.5 -76q-39 -34 -39 -76q0 -28 21 -43.5t57 -15.5q35 0 66 9l1 -44q-40 -8 -74 -8z
" />
    <glyph glyph-name="uogonek" unicode="&#x173;" 
d="M535 -177q-42 -8 -75 -8q-50 0 -81.5 24t-31.5 64q0 71 71 115v86q-71 -113 -174 -113q-71 0 -112.5 47t-41.5 126v358h56v-345q0 -64 30 -98.5t83 -34.5q98 0 159 111v367h56v-522h-37q-48 -38 -48 -83q0 -27 21 -43t57 -16q35 0 67 9z" />
    <glyph glyph-name="Wcircumflex" unicode="&#x174;" horiz-adv-x="773" 
d="M244 788l-26 28q76 58 145 129h45q66 -67 146 -129l-26 -28q-66 41 -143 106q-75 -65 -141 -106zM554 0l-153 542l-152 -542h-57l-155 696h56l130 -619l154 545h49l156 -544l130 618h53l-155 -696h-56z" />
    <glyph glyph-name="wcircumflex" unicode="&#x175;" horiz-adv-x="716" 
d="M214 614l-25 28q72 55 144 129h45q75 -73 146 -129l-25 -28q-71 43 -143 107q-70 -62 -142 -107zM478 0l-121 402l-118 -402h-56l-138 522h56l111 -453l122 413h48l125 -416l112 456h53l-138 -522h-56z" />
    <glyph glyph-name="Ycircumflex" unicode="&#x176;" horiz-adv-x="586" 
d="M150 788l-25 28q78 60 144 129h45q67 -67 146 -129l-25 -28q-68 42 -143 106q-73 -62 -142 -106zM321 0h-56v266l-238 430h63l205 -378l202 378h61l-237 -430v-266z" />
    <glyph glyph-name="ycircumflex" unicode="&#x177;" horiz-adv-x="497" 
d="M106 614l-26 28q69 53 145 129h44q76 -75 147 -129l-26 -28q-65 40 -143 107q-72 -64 -141 -107zM110 -180q-37 0 -66 8l9 50q30 -8 60 -8q42 0 64.5 26.5t40.5 81.5l6 16l-184 528h59l153 -457l151 457h57l-201 -571q-45 -131 -149 -131z" />
    <glyph glyph-name="Ydieresis" unicode="&#x178;" horiz-adv-x="586" 
d="M371 805q-42 0 -42 41q0 40 42 40t42 -41q0 -40 -42 -40zM214 805q-41 0 -41 41q0 40 41 40q42 0 42 -41q0 -40 -42 -40zM321 0h-56v266l-238 430h63l205 -378l202 378h61l-237 -430v-266z" />
    <glyph glyph-name="Zacute" unicode="&#x179;" horiz-adv-x="583" 
d="M217 776q61 83 99 159h81q-55 -78 -134 -159h-46zM523 0h-463v50l397 597h-397v49h463v-49l-399 -597h399v-50z" />
    <glyph glyph-name="zacute" unicode="&#x17a;" horiz-adv-x="475" 
d="M164 603q60 83 98 158h81q-56 -80 -134 -158h-45zM418 0h-361v50l299 423h-299v49h361v-49l-296 -423h296v-50z" />
    <glyph glyph-name="Zdotaccent" unicode="&#x17b;" horiz-adv-x="583" 
d="M292 805q-42 0 -42 41q0 40 42 40q41 0 41 -41q0 -40 -41 -40zM523 0h-463v50l397 597h-397v49h463v-49l-399 -597h399v-50z" />
    <glyph glyph-name="zdotaccent" unicode="&#x17c;" horiz-adv-x="475" 
d="M238 631q-42 0 -42 41q0 40 42 40q41 0 41 -41q0 -40 -41 -40zM418 0h-361v50l299 423h-299v49h361v-49l-296 -423h296v-50z" />
    <glyph glyph-name="Zcaron" unicode="&#x17d;" horiz-adv-x="583" 
d="M270 784q-74 74 -146 129l25 28q73 -46 144 -107q68 62 141 107l25 -28q-81 -63 -144 -129h-45zM523 0h-463v50l397 597h-397v49h463v-49l-399 -597h399v-50z" />
    <glyph glyph-name="zcaron" unicode="&#x17e;" horiz-adv-x="475" 
d="M216 610q-68 69 -146 129l26 28q70 -46 143 -106q76 66 141 106l25 -28q-86 -67 -144 -129h-45zM418 0h-361v50l299 423h-299v49h361v-49l-296 -423h296v-50z" />
    <glyph glyph-name="florin" unicode="&#x192;" horiz-adv-x="536" 
d="M164 -6q-57 0 -103 18l12 47q49 -15 78 -15q47 0 68 26t21 88v217h-166v50h166v136q0 68 36.5 107.5t95.5 39.5q64 0 102 -18l-12 -47q-46 16 -78 16q-46 0 -67 -26t-21 -88v-120h172v-50h-172v-234q0 -69 -36 -108t-96 -39z" />
    <glyph glyph-name="Aringacute" unicode="&#x1fa;" horiz-adv-x="620" 
d="M311 756q-54 0 -85 31.5t-31 89.5q0 52 24 83t66 39q58 82 96 155h81q-56 -78 -130 -154q44 -6 69.5 -38t25.5 -85q0 -58 -31 -89.5t-85 -31.5zM311 794q74 0 74 83q0 86 -74 86t-74 -86q0 -83 74 -83zM432 269l-123 364l-122 -364h245zM522 0l-74 221h-277l-74 -221h-57
l244 697h53l244 -697h-59z" />
    <glyph glyph-name="aringacute" unicode="&#x1fb;" horiz-adv-x="530" 
d="M221 864q63 89 98 158h81q-53 -75 -134 -158h-45zM248 603q-54 0 -85 31t-31 90t31.5 91.5t84.5 32.5t84.5 -32.5t31.5 -91.5t-31 -90t-85 -31zM248 640q74 0 74 84q0 41 -19 63.5t-55 22.5t-55 -22.5t-19 -63.5q0 -84 74 -84zM225 38q83 0 146 72v132h-151
q-49 0 -79 -25.5t-30 -74.5t31 -76.5t83 -27.5zM503 -1q-47 -11 -81 11t-35 64q-75 -84 -174 -84q-67 0 -111.5 39.5t-44.5 108.5t44 109.5t118 40.5h152v71q0 61 -31.5 93t-90.5 32q-50 0 -80.5 -21.5t-51.5 -70.5l-46 24q50 116 183 116q77 0 124 -44t47 -120v-260
q0 -40 21 -55.5t57 -4.5v-49z" />
    <glyph glyph-name="AEacute" unicode="&#x1fc;" horiz-adv-x="831" 
d="M480 776q61 87 98 159h82q-57 -80 -135 -159h-45zM329 647l-135 -370h226v370h-91zM420 229h-242l-82 -229h-59l258 696h467v-49h-286v-246h247v-49h-247v-302h286v-50h-342v229z" />
    <glyph glyph-name="aeacute" unicode="&#x1fd;" horiz-adv-x="826" 
d="M339 603q59 80 99 158h81q-56 -80 -134 -158h-46zM576 484q-138 0 -150 -184h282v4q0 90 -36.5 135t-95.5 45zM225 38q87 0 166 92q-17 45 -20 113h-150q-50 0 -80 -26t-30 -75t30.5 -76.5t83.5 -27.5zM586 -9q-121 0 -176 97q-95 -98 -197 -98q-67 0 -111.5 39.5
t-44.5 107.5q0 71 44 112t117 41h153v69q0 60 -31.5 92.5t-90.5 32.5q-49 0 -80 -21.5t-52 -71.5l-46 25q50 116 183 116q56 0 96.5 -24t59.5 -67q54 91 166 91q82 0 135 -62t53 -172v-45h-339q4 -212 161 -212q82 0 130 67l38 -35q-58 -82 -168 -82z" />
    <glyph glyph-name="Oslashacute" unicode="&#x1fe;" horiz-adv-x="649" 
d="M259 776q55 76 99 159h81q-60 -84 -134 -159h-46zM120 356q0 -196 77 -270l205 557q-34 12 -76 12q-206 0 -206 -299zM326 41q99 0 151.5 73t52.5 242q0 199 -89 266l-206 -562q39 -19 91 -19zM326 -9q-60 0 -109 21l-37 -99l-46 1l45 120q-115 86 -115 322
q0 177 70.5 263t192.5 86q50 0 92 -15l34 94h47l-41 -113q127 -78 127 -315q0 -188 -69 -276.5t-191 -88.5z" />
    <glyph glyph-name="oslashacute" unicode="&#x1ff;" horiz-adv-x="586" 
d="M220 603q60 83 98 158h81q-56 -80 -134 -158h-45zM122 261q0 -125 47 -178l174 380q-31 19 -73 19q-148 0 -148 -221zM270 41q149 0 149 219q0 118 -43 173l-174 -377q30 -15 68 -15zM270 -9q-48 0 -89 18l-44 -96h-46l54 119q-80 69 -80 229q0 134 55 202.5t151 68.5
q51 0 93 -22l47 100h45l-57 -125q77 -69 77 -225q0 -134 -55 -201.5t-151 -67.5z" />
    <glyph glyph-name="Scommaaccent" unicode="&#x218;" horiz-adv-x="597" 
d="M306 -5q-175 0 -254 134l43 32q65 -117 211 -117q80 0 126.5 35t46.5 99q0 61 -42 93.5t-151 57.5t-157.5 69t-48.5 122q0 81 57.5 130.5t151.5 49.5q155 0 227 -123l-41 -31q-69 104 -188 104q-70 0 -111 -32.5t-41 -94.5q0 -58 37 -89.5t138 -54.5q118 -25 170.5 -71
t52.5 -126q0 -84 -63 -135.5t-164 -51.5zM215 -236q37 81 58 158h80q-43 -87 -95 -158h-43z" />
    <glyph glyph-name="scommaaccent" unicode="&#x219;" horiz-adv-x="498" 
d="M254 -9q-118 0 -197 63l27 43q70 -56 170 -56q57 0 95 22.5t38 69.5q0 44 -30 64t-108 37q-93 21 -135 54t-42 99q0 67 49 106t122 39q102 0 181 -65l-27 -43q-69 58 -154 58q-51 0 -83.5 -23t-32.5 -69q0 -44 30 -65t109 -38q91 -19 133 -51.5t42 -98.5
q0 -69 -53.5 -107.5t-133.5 -38.5zM151 -236q37 81 58 158h80q-43 -87 -95 -158h-43z" />
    <glyph glyph-name="Tcommaaccent" unicode="&#x21a;" horiz-adv-x="545" 
d="M245 0v647h-213v49h481v-49h-212v-647h-56zM180 -236q40 90 58 158h79q-37 -79 -94 -158h-43z" />
    <glyph glyph-name="tcommaaccent" unicode="&#x21b;" horiz-adv-x="405" 
d="M275 -8q-68 0 -104 43t-36 126v312h-107v49h107v144h56v-144h171v-49h-171v-315q0 -58 23.5 -86.5t64.5 -28.5q37 0 80 18l12 -49q-49 -20 -96 -20zM157 -236q37 84 57 158h80q-43 -87 -95 -158h-42z" />
    <glyph glyph-name="dotlessj" unicode="&#x237;" horiz-adv-x="269" 
d="M36 -181q-34 0 -87 17l13 51q44 -17 70 -17q81 0 81 93v559h56v-557q0 -72 -37 -109t-96 -37z" />
    <glyph glyph-name="uni02BB" unicode="&#x2bb;" horiz-adv-x="285" 
d="M203 696q-2 -5 -5 -15q-34 -104 -42 -175q-2 -16 -4 -34h-69q18 119 79 224h41z" />
    <glyph glyph-name="uni02BC" unicode="&#x2bc;" horiz-adv-x="285" 
d="M73 472q25 72 35 113.5t16 110.5h70q-16 -117 -79 -224h-42z" />
    <glyph glyph-name="circumflex" unicode="&#x2c6;" horiz-adv-x="528" 
d="M121 614l-25 28q70 55 144 129h45q72 -72 146 -129l-26 -28q-69 43 -143 107q-67 -60 -141 -107z" />
    <glyph glyph-name="caron" unicode="&#x2c7;" horiz-adv-x="528" 
d="M242 610q-69 69 -146 129l25 28q65 -42 143 -106q73 63 141 106l26 -28q-86 -66 -144 -129h-45z" />
    <glyph glyph-name="uni02C9" unicode="&#x2c9;" horiz-adv-x="528" 
d="M118 659v45h291v-45h-291z" />
    <glyph glyph-name="breve" unicode="&#x2d8;" horiz-adv-x="528" 
d="M263 614q-73 0 -115.5 38t-43.5 117h46q1 -61 29 -88.5t84 -27.5t84 27.5t29 88.5h47q-1 -79 -43.5 -117t-116.5 -38z" />
    <glyph glyph-name="dotaccent" unicode="&#x2d9;" horiz-adv-x="0" 
d="M-1 631q-42 0 -42 41q0 40 42 40t42 -41q0 -40 -42 -40z" />
    <glyph glyph-name="ring" unicode="&#x2da;" horiz-adv-x="528" 
d="M263 603q-54 0 -85 31t-31 90t31.5 91.5t84.5 32.5t84.5 -32.5t31.5 -91.5t-31 -90t-85 -31zM263 640q74 0 74 84q0 41 -19 63.5t-55 22.5t-55 -22.5t-19 -63.5q0 -84 74 -84z" />
    <glyph glyph-name="ogonek" unicode="&#x2db;" horiz-adv-x="528" 
d="M300 -185q-50 0 -82 24t-32 64q0 41 27.5 75.5t66.5 51.5l17 -16q-68 -40 -68 -97q0 -28 21 -43.5t57 -15.5q35 0 66 9l1 -44q-40 -8 -74 -8z" />
    <glyph glyph-name="tilde" unicode="&#x2dc;" horiz-adv-x="528" 
d="M331 616q-44 0 -80 60q-1 2 -5 8t-5.5 8.5t-5.5 7.5l-6 7.5t-5.5 6.5t-5.5 6t-6 5t-6.5 4t-6 2t-7.5 1q-21 0 -33.5 -25t-12.5 -72v-10h-47v13q0 63 25.5 101.5t71.5 38.5q29 0 46 -15t35 -43q11 -17 14 -21.5t12 -16t16.5 -15.5t15.5 -4q45 0 45 96v10h48v-13
q0 -63 -25.5 -101.5t-71.5 -38.5z" />
    <glyph glyph-name="hungarumlaut" unicode="&#x2dd;" horiz-adv-x="528" 
d="M159 603q43 87 68 158h64q-31 -64 -96 -158h-36zM305 603q54 112 70 158h63q-29 -59 -97 -158h-36z" />
    <glyph glyph-name="gravecmb" unicode="&#x300;" horiz-adv-x="0" 
d="M19 603q-80 82 -135 158h77q43 -82 99 -158h-41z" />
    <glyph glyph-name="acutecmb" unicode="&#x301;" horiz-adv-x="0" 
d="M-74 603q60 83 98 158h82q-57 -80 -134 -158h-46z" />
    <glyph glyph-name="circumflexcmb" unicode="&#x302;" horiz-adv-x="0" 
d="M-142 614l-26 28q69 53 145 129h44q76 -75 147 -129l-26 -28q-65 40 -143 107q-72 -64 -141 -107z" />
    <glyph glyph-name="tildecmb" unicode="&#x303;" horiz-adv-x="0" 
d="M68 616q-44 0 -80 60q-1 2 -5 8t-5.5 8.5t-5.5 7.5l-6 7.5t-5.5 6.5t-5.5 6t-6 5t-6.5 4t-6 2t-7.5 1q-46 0 -46 -97v-10h-48v13q0 63 26 101.5t72 38.5q29 0 46 -15t35 -43q11 -17 14 -21.5t12 -16t16.5 -15.5t15.5 -4q45 0 45 96v10h48v-13q0 -63 -25.5 -101.5
t-71.5 -38.5z" />
    <glyph glyph-name="macroncmb" unicode="&#x304;" horiz-adv-x="0" 
d="M-145 659v45h290v-45h-290z" />
    <glyph glyph-name="brevecmb" unicode="&#x306;" horiz-adv-x="0" 
d="M0 614q-73 0 -116 38t-44 117h47q1 -61 29 -88.5t84 -27.5t84 27.5t29 88.5h47q-1 -79 -44 -117t-116 -38z" />
    <glyph glyph-name="dotaccentcmb" unicode="&#x307;" horiz-adv-x="0" 
d="M0 631q-42 0 -42 41q0 40 42 40t42 -41q0 -40 -42 -40z" />
    <glyph glyph-name="dieresiscmb" unicode="&#x308;" horiz-adv-x="0" 
d="M78 631q-41 0 -41 41q0 40 41 40q42 0 42 -41q0 -40 -42 -40zM-78 631q-42 0 -42 41q0 40 42 40q41 0 41 -41q0 -40 -41 -40z" />
    <glyph glyph-name="ringcmb" unicode="&#x30a;" horiz-adv-x="0" 
d="M0 603q-54 0 -85 31t-31 90t31.5 91.5t84.5 32.5t84.5 -32.5t31.5 -91.5t-31 -90t-85 -31zM0 640q74 0 74 84q0 41 -19 63.5t-55 22.5t-55 -22.5t-19 -63.5q0 -84 74 -84z" />
    <glyph glyph-name="hungarumlautcmb" unicode="&#x30b;" horiz-adv-x="0" 
d="M-105 603q44 85 68 158h64q-25 -53 -95 -158h-37zM42 603q50 104 70 158h63q-33 -65 -97 -158h-36z" />
    <glyph glyph-name="caroncmb" unicode="&#x30c;" horiz-adv-x="0" 
d="M-21 610q-71 70 -147 129l26 28q65 -42 143 -106q76 66 141 106l26 -28q-85 -65 -145 -129h-44z" />
    <glyph glyph-name="commaturnedabovecmb" unicode="&#x312;" horiz-adv-x="0" 
d="M-65 605q35 75 94 157h42q-39 -85 -58 -157h-78z" />
    <glyph glyph-name="commaaccentcmb" unicode="&#x326;" horiz-adv-x="0" 
d="M-76 -236q36 82 58 158h79q-38 -81 -95 -158h-42z" />
    <glyph glyph-name="cedillacmb" unicode="&#x327;" horiz-adv-x="0" 
d="M1 -185q-73 0 -113 52l31 27q25 -41 83 -41q66 0 66 42q0 45 -86 49v64h39v-36q45 -6 71 -26.5t26 -51.5q0 -39 -34 -59t-83 -20z" />
    <glyph glyph-name="ogonekcmb" unicode="&#x328;" horiz-adv-x="0" 
d="M37 -185q-50 0 -82 24t-32 64q0 41 27.5 75.5t66.5 51.5l17 -16q-69 -41 -69 -97q0 -28 21.5 -43.5t57.5 -15.5q34 0 66 9l1 -44q-42 -8 -74 -8z" />
    <glyph glyph-name="Wgrave" unicode="&#x1e80;" horiz-adv-x="773" 
d="M405 776q-82 86 -135 159h78q35 -70 98 -159h-41zM554 0l-153 542l-152 -542h-57l-155 696h56l130 -619l154 545h49l156 -544l130 618h53l-155 -696h-56z" />
    <glyph glyph-name="wgrave" unicode="&#x1e81;" horiz-adv-x="716" 
d="M376 603q-76 76 -135 158h77q43 -82 99 -158h-41zM478 0l-121 402l-118 -402h-56l-138 522h56l111 -453l122 413h48l125 -416l112 456h53l-138 -522h-56z" />
    <glyph glyph-name="Wacute" unicode="&#x1e82;" horiz-adv-x="773" 
d="M312 776q56 76 99 159h81q-60 -84 -134 -159h-46zM554 0l-153 542l-152 -542h-57l-155 696h56l130 -619l154 545h49l156 -544l130 618h53l-155 -696h-56z" />
    <glyph glyph-name="wacute" unicode="&#x1e83;" horiz-adv-x="716" 
d="M283 603q60 83 98 158h81q-56 -80 -134 -158h-45zM478 0l-121 402l-118 -402h-56l-138 522h56l111 -453l122 413h48l125 -416l112 456h53l-138 -522h-56z" />
    <glyph glyph-name="Wdieresis" unicode="&#x1e84;" horiz-adv-x="773" 
d="M464 805q-41 0 -41 41q0 40 41 40q42 0 42 -41q0 -40 -42 -40zM308 805q-42 0 -42 41q0 40 42 40t42 -41q0 -40 -42 -40zM554 0l-153 542l-152 -542h-57l-155 696h56l130 -619l154 545h49l156 -544l130 618h53l-155 -696h-56z" />
    <glyph glyph-name="wdieresis" unicode="&#x1e85;" horiz-adv-x="716" 
d="M435 631q-42 0 -42 41q0 40 42 40t42 -41q0 -40 -42 -40zM278 631q-41 0 -41 41q0 40 41 40q42 0 42 -41q0 -40 -42 -40zM478 0l-121 402l-118 -402h-56l-138 522h56l111 -453l122 413h48l125 -416l112 456h53l-138 -522h-56z" />
    <glyph glyph-name="Ygrave" unicode="&#x1ef2;" horiz-adv-x="586" 
d="M312 776q-82 84 -135 159h77q42 -80 99 -159h-41zM321 0h-56v266l-238 430h63l205 -378l202 378h61l-237 -430v-266z" />
    <glyph glyph-name="ygrave" unicode="&#x1ef3;" horiz-adv-x="497" 
d="M267 603q-76 76 -135 158h77q43 -82 99 -158h-41zM110 -180q-37 0 -66 8l9 50q30 -8 60 -8q42 0 64.5 26.5t40.5 81.5l6 16l-184 528h59l153 -457l151 457h57l-201 -571q-45 -131 -149 -131z" />
    <glyph glyph-name="uni2000" unicode="&#x2000;" horiz-adv-x="493" 
 />
    <glyph glyph-name="uni2001" unicode="&#x2001;" horiz-adv-x="972" 
 />
    <glyph glyph-name="uni2002" unicode="&#x2002;" horiz-adv-x="493" 
 />
    <glyph glyph-name="uni2003" unicode="&#x2003;" horiz-adv-x="972" 
 />
    <glyph glyph-name="uni2004" unicode="&#x2004;" horiz-adv-x="333" 
 />
    <glyph glyph-name="uni2005" unicode="&#x2005;" horiz-adv-x="254" 
 />
    <glyph glyph-name="uni2007" unicode="&#x2007;" horiz-adv-x="667" 
 />
    <glyph glyph-name="uni2009" unicode="&#x2009;" horiz-adv-x="174" 
 />
    <glyph glyph-name="uni200A" unicode="&#x200a;" horiz-adv-x="110" 
 />
    <glyph glyph-name="uni200B" unicode="&#x200b;" horiz-adv-x="0" 
 />
    <glyph glyph-name="endash" unicode="&#x2013;" horiz-adv-x="626" 
d="M87 282v46h452v-46h-452z" />
    <glyph glyph-name="emdash" unicode="&#x2014;" horiz-adv-x="854" 
d="M87 282v46h679v-46h-679z" />
    <glyph glyph-name="horizontalbar" unicode="&#x2015;" horiz-adv-x="706" 
d="M0 285v47h706v-47h-706z" />
    <glyph glyph-name="quoteleft" unicode="&#x2018;" horiz-adv-x="285" 
d="M203 696q-2 -5 -5 -15q-34 -104 -42 -175q-2 -16 -4 -34h-69q18 119 79 224h41z" />
    <glyph glyph-name="quoteright" unicode="&#x2019;" horiz-adv-x="285" 
d="M73 472q25 72 35 113.5t16 110.5h70q-16 -117 -79 -224h-42z" />
    <glyph glyph-name="quotesinglbase" unicode="&#x201a;" horiz-adv-x="301" 
d="M73 -124q25 72 35 113.5t16 111.5h70q-10 -73 -29 -122t-50 -103h-42z" />
    <glyph glyph-name="quotereversed" unicode="&#x201b;" horiz-adv-x="408" 
d="M213 472h-40q-2 4 -7 12q-22 37 -32 57.5t-22 60.5t-20 94h72q4 -44 7 -69.5t10.5 -54.5t11.5 -41t20 -59z" />
    <glyph glyph-name="quotedblleft" unicode="&#x201c;" horiz-adv-x="452" 
d="M200 696q-19 -55 -25.5 -76t-13 -56.5t-12.5 -91.5h-70q9 58 22 99.5t22.5 61t35.5 63.5h41zM368 696q-2 -6 -6 -17q-30 -86 -37 -143l-7 -64h-70q8 57 21.5 100t22 60t35.5 64h41z" />
    <glyph glyph-name="quotedblright" unicode="&#x201d;" horiz-adv-x="452" 
d="M245 472q2 6 9.5 27t8.5 24.5t6.5 20t6 21t4.5 19t5 23t3.5 24t4 30.5l3.5 35h70q-8 -58 -21.5 -101t-22 -59t-35.5 -64h-42zM77 472q20 56 26 75.5t12.5 55.5t11.5 93h71q-9 -58 -22 -100t-22.5 -60.5t-35.5 -63.5h-41z" />
    <glyph glyph-name="quotedblbase" unicode="&#x201e;" horiz-adv-x="471" 
d="M242 -117q3 8 8.5 25t7.5 22.5t6.5 19t6 19t4.5 17.5t4.5 19.5t3.5 19.5t3.5 24t3 26.5t3.5 32.5h70q-8 -58 -21.5 -101t-22 -60t-35.5 -64h-42zM74 -117q20 57 26 76.5t12.5 55.5t11.5 93h71q-9 -58 -22.5 -101t-22 -60t-35.5 -64h-41z" />
    <glyph glyph-name="dagger" unicode="&#x2020;" horiz-adv-x="667" 
d="M306 -175v640h-135l-32 -186h-43l25 244h184l-5 173h68l-3 -173h182l25 -244h-43l-30 186h-137v-640h-56z" />
    <glyph glyph-name="daggerdbl" unicode="&#x2021;" horiz-adv-x="682" 
d="M308 -175l4 175h-191l-25 192h43l32 -135h143v408h-143l-32 -135h-43l25 191h191l-4 175h68l-4 -175h190l24 -191h-41l-32 135h-143v-408h143l32 135h41l-24 -192h-190l4 -175h-68z" />
    <glyph glyph-name="bullet" unicode="&#x2022;" horiz-adv-x="456" 
d="M229 236q-49 0 -77 28t-28 85q0 53 28.5 80.5t76.5 27.5t75.5 -27.5t27.5 -81.5q0 -56 -27.5 -84t-75.5 -28z" />
    <glyph glyph-name="ellipsis" unicode="&#x2026;" horiz-adv-x="904" 
d="M150 -6q-23 0 -37.5 15t-14.5 40q0 23 14.5 38t37.5 15q24 0 38.5 -15t14.5 -38q0 -25 -14.5 -40t-38.5 -15zM451 -6q-23 0 -37.5 15t-14.5 40q0 23 14.5 38t37.5 15q24 0 38.5 -15t14.5 -38q0 -25 -14.5 -40t-38.5 -15zM753 -6q-23 0 -37.5 15t-14.5 40q0 23 14.5 38
t37.5 15q24 0 38.5 -15t14.5 -38q0 -25 -14.5 -40t-38.5 -15z" />
    <glyph glyph-name="perthousand" unicode="&#x2030;" horiz-adv-x="1114" 
d="M208 338q-59 0 -93.5 47t-34.5 135q0 87 35.5 136t92.5 49q59 0 94 -49t35 -136q0 -89 -35 -135.5t-94 -46.5zM178 0l400 696h55l-399 -696h-56zM208 380q39 0 61 35.5t22 104.5q0 68 -22.5 106.5t-60.5 38.5q-40 0 -61 -38t-21 -107q0 -140 82 -140zM907 -9
q-59 0 -94 46t-35 133q0 89 35.5 138.5t93.5 49.5q59 0 94 -49t35 -138q0 -87 -35 -133.5t-94 -46.5zM603 -9q-60 0 -94.5 46t-34.5 133q0 89 35 138.5t94 49.5t93.5 -49t34.5 -138q0 -87 -34.5 -133.5t-93.5 -46.5zM907 33q38 0 60 35t22 103q0 69 -22.5 107.5t-59.5 38.5
q-40 0 -61.5 -38.5t-21.5 -108.5q0 -137 83 -137zM603 33q38 0 60 35t22 103q0 69 -22.5 107.5t-59.5 38.5q-40 0 -61.5 -38.5t-21.5 -108.5q0 -137 83 -137z" />
    <glyph glyph-name="minute" unicode="&#x2032;" horiz-adv-x="314" 
d="M73 472q25 72 35 113.5t16 110.5h70q-16 -117 -79 -224h-42z" />
    <glyph glyph-name="second" unicode="&#x2033;" horiz-adv-x="497" 
d="M245 472q2 6 9.5 27t8.5 24.5t6.5 20t6 21t4.5 19t5 23t3.5 24t4 30.5l3.5 35h70q-8 -58 -21.5 -101t-22 -59t-35.5 -64h-42zM77 472q20 56 26 75.5t12.5 55.5t11.5 93h71q-9 -58 -22 -100t-22.5 -60.5t-35.5 -63.5h-41z" />
    <glyph glyph-name="guilsinglleft" unicode="&#x2039;" horiz-adv-x="445" 
d="M345 96l-245 178v61l245 179v-61l-204 -148l204 -148v-61z" />
    <glyph glyph-name="guilsinglright" unicode="&#x203a;" horiz-adv-x="445" 
d="M100 96v61l204 148l-204 148v61l245 -179v-61z" />
    <glyph glyph-name="exclamdbl" unicode="&#x203c;" horiz-adv-x="573" 
d="M105 203l-17 493h72l-17 -493h-38zM368 203l-16 493h71l-16 -493h-39zM124 -6q-47 0 -47 51q0 23 12 37.5t35 14.5q24 0 36 -14.5t12 -37.5q0 -51 -48 -51zM387 -6q-23 0 -35 14t-12 37t12.5 37.5t34.5 14.5q24 0 36 -14.5t12 -37.5q0 -51 -48 -51z" />
    <glyph glyph-name="fraction" unicode="&#x2044;" horiz-adv-x="258" 
d="M-59 0l320 696h54l-319 -696h-55z" />
    <glyph glyph-name="Euro" unicode="&#x20ac;" horiz-adv-x="653" 
d="M601 188q-13 -90 -74.5 -143.5t-161.5 -53.5q-99 0 -165.5 61.5t-86.5 187.5h-80v45h75q-3 33 -3 70q0 38 2 56h-74v44h79q19 126 86 188t168 62q97 0 158 -53.5t77 -148.5l-54 -12q-29 164 -182 164q-166 0 -197 -200h215v-44h-220q-2 -18 -2 -56q0 -28 2 -70h220v-45
h-214q33 -199 196 -199q159 0 183 158z" />
    <glyph glyph-name="lsquare" unicode="&#x2113;" horiz-adv-x="489" 
d="M231 277q94 0 107 71l34 208q7 48 -12.5 71t-72.5 23q-46 0 -74.5 -19.5t-33.5 -52.5l-36 -210q-13 -91 88 -91zM349 21q-64 -27 -127 -27q-85 0 -131 47t-34 124l66 406q11 64 56.5 99t110.5 35q76 0 111.5 -43.5t25.5 -112.5l-31 -194q-12 -68 -55 -103t-109 -35
q-74 0 -104 42l-12 -84q-8 -56 20.5 -87.5t87.5 -31.5q64 0 119 26z" />
    <glyph glyph-name="numero" unicode="&#x2116;" horiz-adv-x="939" 
d="M713 268q-72 0 -114 56.5t-42 164.5q0 102 42.5 158t113.5 56q72 0 114 -56t42 -159q0 -107 -42 -163.5t-114 -56.5zM150 618v-618h-55v696h85l241 -630v630h57v-697h-90zM713 319q98 0 98 169q0 80 -25.5 122t-72.5 42q-99 0 -99 -163q0 -170 99 -170z" />
    <glyph glyph-name="trademark" unicode="&#x2122;" horiz-adv-x="687" 
d="M151 397v265h-98v35h227v-36h-92v-264h-37zM367 654v-257h-35v300h53l80 -202l80 202h52v-300h-34l-1 257l-80 -199h-34z" />
    <glyph glyph-name="Ohm" unicode="&#x2126;" horiz-adv-x="712" 
 />
    <glyph glyph-name="oneeighth" unicode="&#x215b;" horiz-adv-x="933" 
d="M280 0l321 696h53l-319 -696h-55z" />
    <glyph glyph-name="threeeighths" unicode="&#x215c;" horiz-adv-x="967" 
d="M295 0l320 696h54l-319 -696h-55z" />
    <glyph glyph-name="fiveeighths" unicode="&#x215d;" horiz-adv-x="967" 
d="M295 0l320 696h54l-319 -696h-55z" />
    <glyph glyph-name="seveneighths" unicode="&#x215e;" horiz-adv-x="963" 
d="M260 0l320 696h54l-319 -696h-55z" />
    <glyph glyph-name="minus" unicode="&#x2212;" horiz-adv-x="626" 
d="M87 282v46h452v-46h-452z" />
    <glyph glyph-name="uni2215" unicode="&#x2215;" horiz-adv-x="258" 
d="M-59 0l320 696h54l-319 -696h-55z" />
    <glyph glyph-name="uni2219" unicode="&#x2219;" horiz-adv-x="301" 
d="M150 285q-23 0 -37 14.5t-14 39.5q0 24 14 38.5t37 14.5q25 0 39 -14.5t14 -38.5q0 -25 -14.5 -39.5t-38.5 -14.5z" />
    <glyph glyph-name="approxequal" unicode="&#x2248;" horiz-adv-x="658" 
d="M456 348q-46 0 -74.5 23.5t-65.5 87.5q-39 69 -59.5 89t-55.5 20q-74 0 -74 -130v-82h-49v85q0 83 34 129t89 46q47 0 76.5 -23.5t63.5 -84.5q40 -71 60.5 -91.5t54.5 -20.5q74 0 74 122v90h50v-95q0 -79 -34 -122t-90 -43zM456 0q-47 0 -75.5 24t-64.5 89
q-41 69 -61 88.5t-53 19.5q-75 0 -75 -131v-82h-49v87q0 81 34 127t90 46q47 0 76 -23t63 -85q40 -71 60.5 -91t54.5 -20q74 0 74 122v89h50v-94q0 -79 -34.5 -122.5t-89.5 -43.5z" />
    <glyph glyph-name="notequal" unicode="&#x2260;" horiz-adv-x="626" 
d="M539 202h-240l-37 -135h-49l38 135h-164v48h177l59 211h-236v48h250l38 137h47l-38 -137h155v-48h-168l-58 -211h226v-48z" />
    <glyph glyph-name="lessequal" unicode="&#x2264;" horiz-adv-x="626" 
d="M541 124l-457 218v47l457 219l1 -53l-404 -189l404 -189zM84 0v48h458v-48h-458z" />
    <glyph glyph-name="greaterequal" unicode="&#x2265;" horiz-adv-x="626" 
d="M85 124l-1 53l405 189l-405 189l1 53l457 -219v-47zM542 0h-457v48h457v-48z" />
    <glyph glyph-name="commaaccent" unicode="&#xf6c3;" horiz-adv-x="528" 
d="M187 -236q40 90 58 158h79q-37 -79 -94 -158h-43z" />
    <glyph glyph-name="apple" unicode="&#xf8ff;" horiz-adv-x="590" 
d="M338 450l165 23h69v-28h-69l-160 -21l40 -59h120l38 -101l27 -50l-23 -12l-28 53l-33 83h-91l17 -147h61l11 -189l24 -63l-23 -12l-29 71l-10 163h-36l-70 -189h-85l-71 189h-37l-9 -163l-29 -74l-24 15l25 63l12 189h61l15 147h-90l-33 -86l-27 -50l-24 12l28 50l36 101
h121l41 59l-162 21h-68v28h68l167 -23v38l-31 19v43l49 12v27l-102 52l-49 10l1 26l48 -8l127 -62l127 62l47 8l2 -26l-49 -11l-105 -52v-26l51 -12v-43l-31 -19v-38z" />
    <glyph glyph-name="uniFEFF" unicode="&#xfeff;" horiz-adv-x="0" 
 />
    <glyph glyph-name="dot" horiz-adv-x="0" 
d="M0 621q-53 0 -53 50q0 52 53 52t53 -53q0 -49 -53 -49z" />
    <glyph glyph-name="dot.round" horiz-adv-x="0" 
d="M0 621q-53 0 -53 50q0 52 53 52t53 -53q0 -49 -53 -49z" />
    <glyph glyph-name="dot.square" horiz-adv-x="0" 
d="M-46 626v91h92v-91h-92z" />
    <glyph glyph-name="space.frac" horiz-adv-x="262" 
 />
    <glyph glyph-name="caron.salt" horiz-adv-x="528" 
d="M212 511q33 97 41 185h60q-15 -101 -62 -185h-39z" />
    <glyph glyph-name="caroncmb.salt" horiz-adv-x="0" 
d="M-51 511q33 97 41 185h60q-15 -101 -62 -185h-39z" />
    <glyph glyph-name="I.i" horiz-adv-x="261" 
d="M103 0v696h56v-696h-56z" />
    <glyph glyph-name="Igrave.i" horiz-adv-x="261" 
d="M144 776q-82 86 -135 159h77q42 -80 99 -159h-41zM103 0v696h56v-696h-56z" />
    <glyph glyph-name="Iacute.i" horiz-adv-x="261" 
d="M78 776q56 76 99 159h81q-60 -84 -134 -159h-46zM103 0v696h56v-696h-56z" />
    <glyph glyph-name="Icircumflex.i" horiz-adv-x="261" 
d="M-12 788l-26 28q76 58 145 129h44q69 -69 147 -129l-26 -28q-66 41 -143 106q-75 -65 -141 -106zM103 0v696h56v-696h-56z" />
    <glyph glyph-name="Idieresis.i" horiz-adv-x="261" 
d="M208 805q-41 0 -41 41q0 40 41 40q42 0 42 -41q0 -40 -42 -40zM52 805q-42 0 -42 41q0 40 42 40q41 0 41 -41q0 -40 -41 -40zM103 0v696h56v-696h-56z" />
    <glyph glyph-name="Itilde.i" horiz-adv-x="261" 
d="M199 790q-44 0 -80 60q-14 20 -19 27.5t-17 17.5t-23 10q-21 0 -33.5 -24.5t-12.5 -71.5v-10h-48v13q0 62 26 101t72 39q29 0 46 -15t35 -44q2 -2 7 -10t7 -10.5t6.5 -9t7 -9.5t6.5 -7t7.5 -6t8 -3.5t8.5 -1.5q45 0 45 97v10h48v-13q0 -63 -25.5 -101.5t-71.5 -38.5z
M103 0v696h56v-696h-56z" />
    <glyph glyph-name="Imacron.i" horiz-adv-x="261" 
d="M-14 832v46h290v-46h-290zM103 0v696h56v-696h-56z" />
    <glyph glyph-name="Ibreve.i" horiz-adv-x="261" 
d="M131 788q-73 0 -115.5 38t-43.5 117h46q1 -61 29 -88.5t84 -27.5t84 27.5t29 88.5h47q-1 -79 -43.5 -117t-116.5 -38zM103 0v696h56v-696h-56z" />
    <glyph glyph-name="Iogonek.i" horiz-adv-x="261" 
d="M232 -177q-42 -8 -74 -8q-50 0 -82 24t-32 64q0 62 59 107v686h56v-696h-25q-48 -38 -48 -83q0 -28 21.5 -43.5t57.5 -15.5q34 0 66 9z" />
    <glyph glyph-name="Idotaccent.i" horiz-adv-x="261" 
d="M130 805q-42 0 -42 41q0 40 42 40t42 -41q0 -40 -42 -40zM103 0v696h56v-696h-56z" />
    <glyph glyph-name="IJ.i" horiz-adv-x="808" 
d="M103 0v696h56v-696h-56zM509 -9q-90 0 -147 57.5t-63 162.5l56 7q14 -177 156 -177q75 0 114 49t39 130v476h56v-475q0 -103 -55.5 -166.5t-155.5 -63.5z" />
    <glyph glyph-name="a.t" horiz-adv-x="514" 
d="M218 38q90 0 154 72v132h-148q-50 0 -80.5 -25.5t-30.5 -74.5q0 -48 28.5 -76t76.5 -28zM388 0q-14 28 -14 64q-31 -34 -76 -54t-92 -20q-63 0 -105.5 40t-42.5 107q0 70 45 110.5t120 40.5h149v71q0 60 -32.5 92.5t-93.5 32.5q-99 0 -137 -92l-45 24q50 116 187 116
q79 0 127.5 -44t48.5 -120v-281q0 -50 13 -87h-52z" />
    <glyph glyph-name="agrave.t" horiz-adv-x="514" 
d="M254 603q-76 76 -135 158h77q43 -82 99 -158h-41zM218 38q90 0 154 72v132h-148q-50 0 -80.5 -25.5t-30.5 -74.5q0 -48 28.5 -76t76.5 -28zM388 0q-14 28 -14 64q-31 -34 -76 -54t-92 -20q-63 0 -105.5 40t-42.5 107q0 70 45 110.5t120 40.5h149v71q0 60 -32.5 92.5
t-93.5 32.5q-99 0 -137 -92l-45 24q50 116 187 116q79 0 127.5 -44t48.5 -120v-281q0 -50 13 -87h-52z" />
    <glyph glyph-name="aacute.t" horiz-adv-x="514" 
d="M189 603q55 74 99 158h81q-61 -86 -134 -158h-46zM218 38q90 0 154 72v132h-148q-50 0 -80.5 -25.5t-30.5 -74.5q0 -48 28.5 -76t76.5 -28zM388 0q-14 28 -14 64q-31 -34 -76 -54t-92 -20q-63 0 -105.5 40t-42.5 107q0 70 45 110.5t120 40.5h149v71q0 60 -32.5 92.5
t-93.5 32.5q-99 0 -137 -92l-45 24q50 116 187 116q79 0 127.5 -44t48.5 -120v-281q0 -50 13 -87h-52z" />
    <glyph glyph-name="acircumflex.t" horiz-adv-x="514" 
d="M110 614l-26 28q69 53 145 129h44q76 -75 147 -129l-26 -28q-65 40 -143 107q-72 -64 -141 -107zM218 38q90 0 154 72v132h-148q-50 0 -80.5 -25.5t-30.5 -74.5q0 -48 28.5 -76t76.5 -28zM388 0q-14 28 -14 64q-31 -34 -76 -54t-92 -20q-63 0 -105.5 40t-42.5 107
q0 70 45 110.5t120 40.5h149v71q0 60 -32.5 92.5t-93.5 32.5q-99 0 -137 -92l-45 24q50 116 187 116q79 0 127.5 -44t48.5 -120v-281q0 -50 13 -87h-52z" />
    <glyph glyph-name="atilde.t" horiz-adv-x="514" 
d="M317 616q-44 0 -80 60q-2 3 -9 13t-9.5 14t-8.5 11t-10.5 10t-10 5.5t-11.5 2.5q-46 0 -46 -97v-10h-48v13q0 63 26 101.5t72 38.5q29 0 46 -15t35 -43q11 -18 18 -28t18 -19.5t22 -9.5q45 0 45 96v10h48v-13q0 -63 -25.5 -101.5t-71.5 -38.5zM218 38q90 0 154 72v132
h-148q-50 0 -80.5 -25.5t-30.5 -74.5q0 -48 28.5 -76t76.5 -28zM388 0q-14 28 -14 64q-31 -34 -76 -54t-92 -20q-63 0 -105.5 40t-42.5 107q0 70 45 110.5t120 40.5h149v71q0 60 -32.5 92.5t-93.5 32.5q-99 0 -137 -92l-45 24q50 116 187 116q79 0 127.5 -44t48.5 -120v-281
q0 -50 13 -87h-52z" />
    <glyph glyph-name="adieresis.t" horiz-adv-x="514" 
d="M334 631q-41 0 -41 41q0 40 41 40q42 0 42 -41q0 -40 -42 -40zM178 631q-42 0 -42 41q0 40 42 40t42 -41q0 -40 -42 -40zM218 38q90 0 154 72v132h-148q-50 0 -80.5 -25.5t-30.5 -74.5q0 -48 28.5 -76t76.5 -28zM388 0q-14 28 -14 64q-31 -34 -76 -54t-92 -20
q-63 0 -105.5 40t-42.5 107q0 70 45 110.5t120 40.5h149v71q0 60 -32.5 92.5t-93.5 32.5q-99 0 -137 -92l-45 24q50 116 187 116q79 0 127.5 -44t48.5 -120v-281q0 -50 13 -87h-52z" />
    <glyph glyph-name="aring.t" horiz-adv-x="514" 
d="M243 603q-54 0 -85 31t-31 90t31.5 91.5t84.5 32.5t84.5 -32.5t31.5 -91.5t-31 -90t-85 -31zM243 640q74 0 74 84q0 41 -19 63.5t-55 22.5t-55 -22.5t-19 -63.5q0 -84 74 -84zM218 38q90 0 154 72v132h-148q-50 0 -80.5 -25.5t-30.5 -74.5q0 -48 28.5 -76t76.5 -28z
M388 0q-14 28 -14 64q-31 -34 -76 -54t-92 -20q-63 0 -105.5 40t-42.5 107q0 70 45 110.5t120 40.5h149v71q0 60 -32.5 92.5t-93.5 32.5q-99 0 -137 -92l-45 24q50 116 187 116q79 0 127.5 -44t48.5 -120v-281q0 -50 13 -87h-52z" />
    <glyph glyph-name="amacron.t" horiz-adv-x="514" 
d="M118 660v45h291v-45h-291zM218 38q90 0 154 72v132h-148q-50 0 -80.5 -25.5t-30.5 -74.5q0 -48 28.5 -76t76.5 -28zM388 0q-14 28 -14 64q-31 -34 -76 -54t-92 -20q-63 0 -105.5 40t-42.5 107q0 70 45 110.5t120 40.5h149v71q0 60 -32.5 92.5t-93.5 32.5q-99 0 -137 -92
l-45 24q50 116 187 116q79 0 127.5 -44t48.5 -120v-281q0 -50 13 -87h-52z" />
    <glyph glyph-name="abreve.t" horiz-adv-x="514" 
d="M263 614q-73 0 -115.5 38t-43.5 117h46q1 -61 29 -88.5t84 -27.5t84 27.5t29 88.5h47q-1 -79 -43.5 -117t-116.5 -38zM218 38q90 0 154 72v132h-148q-50 0 -80.5 -25.5t-30.5 -74.5q0 -48 28.5 -76t76.5 -28zM388 0q-14 28 -14 64q-31 -34 -76 -54t-92 -20
q-63 0 -105.5 40t-42.5 107q0 70 45 110.5t120 40.5h149v71q0 60 -32.5 92.5t-93.5 32.5q-99 0 -137 -92l-45 24q50 116 187 116q79 0 127.5 -44t48.5 -120v-281q0 -50 13 -87h-52z" />
    <glyph glyph-name="aogonek.t" horiz-adv-x="514" 
d="M218 38q90 0 154 72v132h-148q-50 0 -80.5 -25.5t-30.5 -74.5q0 -48 28.5 -76t76.5 -28zM510 -177q-40 -8 -74 -8q-50 0 -82 24t-32 64q0 63 61 108q-9 29 -9 53q-31 -34 -76 -54t-92 -20q-63 0 -105.5 40t-42.5 107q0 70 45 110.5t120 40.5h149v71q0 60 -32.5 92.5
t-93.5 32.5q-99 0 -137 -92l-45 24q50 116 187 116q79 0 127.5 -44t48.5 -120v-281q0 -50 13 -87h-28q-47 -37 -47 -83q0 -28 21 -43.5t57 -15.5q35 0 66 9z" />
    <glyph glyph-name="aringacute.t" horiz-adv-x="514" 
d="M221 864q63 89 98 158h81q-53 -75 -134 -158h-45zM248 603q-54 0 -85 31t-31 90t31.5 91.5t84.5 32.5t84.5 -32.5t31.5 -91.5t-31 -90t-85 -31zM248 640q74 0 74 84q0 41 -19 63.5t-55 22.5t-55 -22.5t-19 -63.5q0 -84 74 -84zM218 38q90 0 154 72v132h-148
q-50 0 -80.5 -25.5t-30.5 -74.5q0 -48 28.5 -76t76.5 -28zM388 0q-14 28 -14 64q-31 -34 -76 -54t-92 -20q-63 0 -105.5 40t-42.5 107q0 70 45 110.5t120 40.5h149v71q0 60 -32.5 92.5t-93.5 32.5q-99 0 -137 -92l-45 24q50 116 187 116q79 0 127.5 -44t48.5 -120v-281
q0 -50 13 -87h-52z" />
    <glyph glyph-name="a.ssa" horiz-adv-x="553" 
d="M275 482q-159 -2 -159 -230q0 -208 140 -208q86 0 146 98v301q-53 38 -127 39zM267 532q76 0 137 -37v27h54v-522h-56v91q-68 -100 -162 -100q-80 0 -130 66.5t-50 194.5q0 142 58 211t149 69z" />
    <glyph glyph-name="agrave.ssa" horiz-adv-x="553" 
d="M254 603q-76 76 -135 158h77q43 -82 99 -158h-41zM275 482q-159 -2 -159 -230q0 -208 140 -208q86 0 146 98v301q-53 38 -127 39zM267 532q76 0 137 -37v27h54v-522h-56v91q-68 -100 -162 -100q-80 0 -130 66.5t-50 194.5q0 142 58 211t149 69z" />
    <glyph glyph-name="aacute.ssa" horiz-adv-x="553" 
d="M189 603q55 74 99 158h81q-61 -86 -134 -158h-46zM275 482q-159 -2 -159 -230q0 -208 140 -208q86 0 146 98v301q-53 38 -127 39zM267 532q76 0 137 -37v27h54v-522h-56v91q-68 -100 -162 -100q-80 0 -130 66.5t-50 194.5q0 142 58 211t149 69z" />
    <glyph glyph-name="acircumflex.ssa" horiz-adv-x="553" 
d="M110 614l-26 28q69 53 145 129h44q76 -75 147 -129l-26 -28q-65 40 -143 107q-72 -64 -141 -107zM275 482q-159 -2 -159 -230q0 -208 140 -208q86 0 146 98v301q-53 38 -127 39zM267 532q76 0 137 -37v27h54v-522h-56v91q-68 -100 -162 -100q-80 0 -130 66.5t-50 194.5
q0 142 58 211t149 69z" />
    <glyph glyph-name="atilde.ssa" horiz-adv-x="553" 
d="M317 616q-44 0 -80 60q-2 3 -9 13t-9.5 14t-8.5 11t-10.5 10t-10 5.5t-11.5 2.5q-46 0 -46 -97v-10h-48v13q0 63 26 101.5t72 38.5q29 0 46 -15t35 -43q11 -18 18 -28t18 -19.5t22 -9.5q45 0 45 96v10h48v-13q0 -63 -25.5 -101.5t-71.5 -38.5zM275 482q-159 -2 -159 -230
q0 -208 140 -208q86 0 146 98v301q-53 38 -127 39zM267 532q76 0 137 -37v27h54v-522h-56v91q-68 -100 -162 -100q-80 0 -130 66.5t-50 194.5q0 142 58 211t149 69z" />
    <glyph glyph-name="adieresis.ssa" horiz-adv-x="553" 
d="M326 631q-41 0 -41 41q0 40 41 40q42 0 42 -41q0 -40 -42 -40zM170 631q-42 0 -42 41q0 40 42 40q41 0 41 -41q0 -40 -41 -40zM275 482q-159 -2 -159 -230q0 -208 140 -208q86 0 146 98v301q-53 38 -127 39zM267 532q76 0 137 -37v27h54v-522h-56v91q-68 -100 -162 -100
q-80 0 -130 66.5t-50 194.5q0 142 58 211t149 69z" />
    <glyph glyph-name="aring.ssa" horiz-adv-x="553" 
d="M243 603q-54 0 -85 31t-31 90t31.5 91.5t84.5 32.5t84.5 -32.5t31.5 -91.5t-31 -90t-85 -31zM243 640q74 0 74 84q0 41 -19 63.5t-55 22.5t-55 -22.5t-19 -63.5q0 -84 74 -84zM275 482q-159 -2 -159 -230q0 -208 140 -208q86 0 146 98v301q-53 38 -127 39zM267 532
q76 0 137 -37v27h54v-522h-56v91q-68 -100 -162 -100q-80 0 -130 66.5t-50 194.5q0 142 58 211t149 69z" />
    <glyph glyph-name="amacron.ssa" horiz-adv-x="553" 
d="M118 660v45h291v-45h-291zM275 482q-159 -2 -159 -230q0 -208 140 -208q86 0 146 98v301q-53 38 -127 39zM267 532q76 0 137 -37v27h54v-522h-56v91q-68 -100 -162 -100q-80 0 -130 66.5t-50 194.5q0 142 58 211t149 69z" />
    <glyph glyph-name="abreve.ssa" horiz-adv-x="553" 
d="M263 614q-73 0 -115.5 38t-43.5 117h46q1 -61 29 -88.5t84 -27.5t84 27.5t29 88.5h47q-1 -79 -43.5 -117t-116.5 -38zM275 482q-159 -2 -159 -230q0 -208 140 -208q86 0 146 98v301q-53 38 -127 39zM267 532q76 0 137 -37v27h54v-522h-56v91q-68 -100 -162 -100
q-80 0 -130 66.5t-50 194.5q0 142 58 211t149 69z" />
    <glyph glyph-name="aogonek.ssa" horiz-adv-x="553" 
d="M275 482q-159 -2 -159 -230q0 -208 140 -208q86 0 146 98v301q-53 38 -127 39zM527 -177q-40 -8 -74 -8q-50 0 -82 24t-32 64q0 63 63 110v78q-68 -100 -162 -100q-80 0 -130 66.5t-50 194.5q0 142 58 211t149 69q76 0 137 -37v27h54v-522h-29q-47 -38 -47 -83
q0 -27 21 -43t57 -16q35 0 66 9z" />
    <glyph glyph-name="aringacute.ssa" horiz-adv-x="553" 
d="M221 864q63 89 98 158h81q-53 -75 -134 -158h-45zM248 603q-54 0 -85 31t-31 90t31.5 91.5t84.5 32.5t84.5 -32.5t31.5 -91.5t-31 -90t-85 -31zM248 640q74 0 74 84q0 41 -19 63.5t-55 22.5t-55 -22.5t-19 -63.5q0 -84 74 -84zM275 482q-159 -2 -159 -230
q0 -208 140 -208q86 0 146 98v301q-53 38 -127 39zM267 532q76 0 137 -37v27h54v-522h-56v91q-68 -100 -162 -100q-80 0 -130 66.5t-50 194.5q0 142 58 211t149 69z" />
    <glyph glyph-name="a.t_c" horiz-adv-x="520" 
d="M229 38q56 0 102 30t47 85v93h-154q-50 -1 -81.5 -26t-31.5 -74q0 -48 32.5 -78t85.5 -30zM221 -10q-70 0 -117 42.5t-47 110.5q0 70 45 109.5t121 39.5h155v60q0 63 -33.5 97.5t-92.5 34.5q-117 0 -133 -106h-53q9 71 58 112.5t129 41.5q79 0 129.5 -48t50.5 -128v-269
q0 -50 13 -87h-52q-14 28 -14 67l1 7q-18 -38 -62 -61t-98 -23z" />
    <glyph glyph-name="agrave.t_c" horiz-adv-x="520" 
d="M254 603q-76 76 -135 158h77q43 -82 99 -158h-41zM229 38q56 0 102 30t47 85v93h-154q-50 -1 -81.5 -26t-31.5 -74q0 -48 32.5 -78t85.5 -30zM221 -10q-70 0 -117 42.5t-47 110.5q0 70 45 109.5t121 39.5h155v60q0 63 -33.5 97.5t-92.5 34.5q-117 0 -133 -106h-53
q9 71 58 112.5t129 41.5q79 0 129.5 -48t50.5 -128v-269q0 -50 13 -87h-52q-14 28 -14 67l1 7q-18 -38 -62 -61t-98 -23z" />
    <glyph glyph-name="aacute.t_c" horiz-adv-x="520" 
d="M189 603q55 74 99 158h81q-61 -86 -134 -158h-46zM229 38q56 0 102 30t47 85v93h-154q-50 -1 -81.5 -26t-31.5 -74q0 -48 32.5 -78t85.5 -30zM221 -10q-70 0 -117 42.5t-47 110.5q0 70 45 109.5t121 39.5h155v60q0 63 -33.5 97.5t-92.5 34.5q-117 0 -133 -106h-53
q9 71 58 112.5t129 41.5q79 0 129.5 -48t50.5 -128v-269q0 -50 13 -87h-52q-14 28 -14 67l1 7q-18 -38 -62 -61t-98 -23z" />
    <glyph glyph-name="acircumflex.t_c" horiz-adv-x="520" 
d="M110 614l-26 28q69 53 145 129h44q76 -75 147 -129l-26 -28q-65 40 -143 107q-72 -64 -141 -107zM229 38q56 0 102 30t47 85v93h-154q-50 -1 -81.5 -26t-31.5 -74q0 -48 32.5 -78t85.5 -30zM221 -10q-70 0 -117 42.5t-47 110.5q0 70 45 109.5t121 39.5h155v60
q0 63 -33.5 97.5t-92.5 34.5q-117 0 -133 -106h-53q9 71 58 112.5t129 41.5q79 0 129.5 -48t50.5 -128v-269q0 -50 13 -87h-52q-14 28 -14 67l1 7q-18 -38 -62 -61t-98 -23z" />
    <glyph glyph-name="atilde.t_c" horiz-adv-x="520" 
d="M317 616q-44 0 -80 60q-2 3 -9 13t-9.5 14t-8.5 11t-10.5 10t-10 5.5t-11.5 2.5q-46 0 -46 -97v-10h-48v13q0 63 26 101.5t72 38.5q29 0 46 -15t35 -43q11 -18 18 -28t18 -19.5t22 -9.5q45 0 45 96v10h48v-13q0 -63 -25.5 -101.5t-71.5 -38.5zM229 38q56 0 102 30t47 85
v93h-154q-50 -1 -81.5 -26t-31.5 -74q0 -48 32.5 -78t85.5 -30zM221 -10q-70 0 -117 42.5t-47 110.5q0 70 45 109.5t121 39.5h155v60q0 63 -33.5 97.5t-92.5 34.5q-117 0 -133 -106h-53q9 71 58 112.5t129 41.5q79 0 129.5 -48t50.5 -128v-269q0 -50 13 -87h-52
q-14 28 -14 67l1 7q-18 -38 -62 -61t-98 -23z" />
    <glyph glyph-name="adieresis.t_c" horiz-adv-x="520" 
d="M326 631q-41 0 -41 41q0 40 41 40q42 0 42 -41q0 -40 -42 -40zM170 631q-42 0 -42 41q0 40 42 40q41 0 41 -41q0 -40 -41 -40zM229 38q56 0 102 30t47 85v93h-154q-50 -1 -81.5 -26t-31.5 -74q0 -48 32.5 -78t85.5 -30zM221 -10q-70 0 -117 42.5t-47 110.5q0 70 45 109.5
t121 39.5h155v60q0 63 -33.5 97.5t-92.5 34.5q-117 0 -133 -106h-53q9 71 58 112.5t129 41.5q79 0 129.5 -48t50.5 -128v-269q0 -50 13 -87h-52q-14 28 -14 67l1 7q-18 -38 -62 -61t-98 -23z" />
    <glyph glyph-name="aring.t_c" horiz-adv-x="520" 
d="M243 603q-54 0 -85 31t-31 90t31.5 91.5t84.5 32.5t84.5 -32.5t31.5 -91.5t-31 -90t-85 -31zM243 640q74 0 74 84q0 41 -19 63.5t-55 22.5t-55 -22.5t-19 -63.5q0 -84 74 -84zM229 38q56 0 102 30t47 85v93h-154q-50 -1 -81.5 -26t-31.5 -74q0 -48 32.5 -78t85.5 -30z
M221 -10q-70 0 -117 42.5t-47 110.5q0 70 45 109.5t121 39.5h155v60q0 63 -33.5 97.5t-92.5 34.5q-117 0 -133 -106h-53q9 71 58 112.5t129 41.5q79 0 129.5 -48t50.5 -128v-269q0 -50 13 -87h-52q-14 28 -14 67l1 7q-18 -38 -62 -61t-98 -23z" />
    <glyph glyph-name="amacron.t_c" horiz-adv-x="520" 
d="M118 660v45h291v-45h-291zM229 38q56 0 102 30t47 85v93h-154q-50 -1 -81.5 -26t-31.5 -74q0 -48 32.5 -78t85.5 -30zM221 -10q-70 0 -117 42.5t-47 110.5q0 70 45 109.5t121 39.5h155v60q0 63 -33.5 97.5t-92.5 34.5q-117 0 -133 -106h-53q9 71 58 112.5t129 41.5
q79 0 129.5 -48t50.5 -128v-269q0 -50 13 -87h-52q-14 28 -14 67l1 7q-18 -38 -62 -61t-98 -23z" />
    <glyph glyph-name="abreve.t_c" horiz-adv-x="520" 
d="M263 614q-73 0 -115.5 38t-43.5 117h46q1 -61 29 -88.5t84 -27.5t84 27.5t29 88.5h47q-1 -79 -43.5 -117t-116.5 -38zM229 38q56 0 102 30t47 85v93h-154q-50 -1 -81.5 -26t-31.5 -74q0 -48 32.5 -78t85.5 -30zM221 -10q-70 0 -117 42.5t-47 110.5q0 70 45 109.5
t121 39.5h155v60q0 63 -33.5 97.5t-92.5 34.5q-117 0 -133 -106h-53q9 71 58 112.5t129 41.5q79 0 129.5 -48t50.5 -128v-269q0 -50 13 -87h-52q-14 28 -14 67l1 7q-18 -38 -62 -61t-98 -23z" />
    <glyph glyph-name="aogonek.t_c" horiz-adv-x="520" 
d="M229 38q56 0 102 30t47 85v93h-154q-50 -1 -81.5 -26t-31.5 -74q0 -48 32.5 -78t85.5 -30zM510 -177q-40 -8 -74 -8q-50 0 -82 24t-32 64q0 66 66 112q-8 24 -8 52l1 7q-18 -38 -62 -61t-98 -23q-70 0 -117 42.5t-47 110.5q0 70 45 109.5t121 39.5h155v60
q0 63 -33.5 97.5t-92.5 34.5q-117 0 -133 -106h-53q9 71 58 112.5t129 41.5q79 0 129.5 -48t50.5 -128v-269q0 -50 13 -87h-34q-47 -37 -47 -83q0 -28 21 -43.5t57 -15.5q35 0 66 9z" />
    <glyph glyph-name="aringacute.t_c" horiz-adv-x="520" 
d="M221 864q63 89 98 158h81q-53 -75 -134 -158h-45zM248 603q-54 0 -85 31t-31 90t31.5 91.5t84.5 32.5t84.5 -32.5t31.5 -91.5t-31 -90t-85 -31zM248 640q74 0 74 84q0 41 -19 63.5t-55 22.5t-55 -22.5t-19 -63.5q0 -84 74 -84zM229 38q56 0 102 30t47 85v93h-154
q-50 -1 -81.5 -26t-31.5 -74q0 -48 32.5 -78t85.5 -30zM221 -10q-70 0 -117 42.5t-47 110.5q0 70 45 109.5t121 39.5h155v60q0 63 -33.5 97.5t-92.5 34.5q-117 0 -133 -106h-53q9 71 58 112.5t129 41.5q79 0 129.5 -48t50.5 -128v-269q0 -50 13 -87h-52q-14 28 -14 67l1 7
q-18 -38 -62 -61t-98 -23z" />
    <glyph glyph-name="a.t_o" horiz-adv-x="507" 
d="M212 38q91 0 153 72v142h-151q-46 0 -77 -25t-31 -74q0 -56 28 -85.5t78 -29.5zM381 0q-14 28 -14 66q-32 -35 -76.5 -55.5t-90.5 -20.5q-63 0 -106 41t-43 111q0 73 45 114.5t117 41.5h152v58q0 57 -33.5 92.5t-95.5 35.5q-46 0 -78 -12.5t-67 -39.5v55q58 45 146 45
q83 0 133 -44.5t50 -123.5v-277q0 -50 13 -87h-52z" />
    <glyph glyph-name="agrave.t_o" horiz-adv-x="507" 
d="M254 603q-76 76 -135 158h77q43 -82 99 -158h-41zM212 38q91 0 153 72v142h-151q-46 0 -77 -25t-31 -74q0 -56 28 -85.5t78 -29.5zM381 0q-14 28 -14 66q-32 -35 -76.5 -55.5t-90.5 -20.5q-63 0 -106 41t-43 111q0 73 45 114.5t117 41.5h152v58q0 57 -33.5 92.5
t-95.5 35.5q-46 0 -78 -12.5t-67 -39.5v55q58 45 146 45q83 0 133 -44.5t50 -123.5v-277q0 -50 13 -87h-52z" />
    <glyph glyph-name="aacute.t_o" horiz-adv-x="507" 
d="M189 603q55 74 99 158h81q-61 -86 -134 -158h-46zM212 38q91 0 153 72v142h-151q-46 0 -77 -25t-31 -74q0 -56 28 -85.5t78 -29.5zM381 0q-14 28 -14 66q-32 -35 -76.5 -55.5t-90.5 -20.5q-63 0 -106 41t-43 111q0 73 45 114.5t117 41.5h152v58q0 57 -33.5 92.5
t-95.5 35.5q-46 0 -78 -12.5t-67 -39.5v55q58 45 146 45q83 0 133 -44.5t50 -123.5v-277q0 -50 13 -87h-52z" />
    <glyph glyph-name="acircumflex.t_o" horiz-adv-x="507" 
d="M110 614l-26 28q69 53 145 129h44q76 -75 147 -129l-26 -28q-65 40 -143 107q-72 -64 -141 -107zM212 38q91 0 153 72v142h-151q-46 0 -77 -25t-31 -74q0 -56 28 -85.5t78 -29.5zM381 0q-14 28 -14 66q-32 -35 -76.5 -55.5t-90.5 -20.5q-63 0 -106 41t-43 111
q0 73 45 114.5t117 41.5h152v58q0 57 -33.5 92.5t-95.5 35.5q-46 0 -78 -12.5t-67 -39.5v55q58 45 146 45q83 0 133 -44.5t50 -123.5v-277q0 -50 13 -87h-52z" />
    <glyph glyph-name="atilde.t_o" horiz-adv-x="507" 
d="M317 616q-44 0 -80 60q-2 3 -9 13t-9.5 14t-8.5 11t-10.5 10t-10 5.5t-11.5 2.5q-46 0 -46 -97v-10h-48v13q0 63 26 101.5t72 38.5q29 0 46 -15t35 -43q11 -18 18 -28t18 -19.5t22 -9.5q45 0 45 96v10h48v-13q0 -63 -25.5 -101.5t-71.5 -38.5zM212 38q91 0 153 72v142
h-151q-46 0 -77 -25t-31 -74q0 -56 28 -85.5t78 -29.5zM381 0q-14 28 -14 66q-32 -35 -76.5 -55.5t-90.5 -20.5q-63 0 -106 41t-43 111q0 73 45 114.5t117 41.5h152v58q0 57 -33.5 92.5t-95.5 35.5q-46 0 -78 -12.5t-67 -39.5v55q58 45 146 45q83 0 133 -44.5t50 -123.5
v-277q0 -50 13 -87h-52z" />
    <glyph glyph-name="adieresis.t_o" horiz-adv-x="507" 
d="M326 631q-41 0 -41 41q0 40 41 40q42 0 42 -41q0 -40 -42 -40zM170 631q-42 0 -42 41q0 40 42 40q41 0 41 -41q0 -40 -41 -40zM212 38q91 0 153 72v142h-151q-46 0 -77 -25t-31 -74q0 -56 28 -85.5t78 -29.5zM381 0q-14 28 -14 66q-32 -35 -76.5 -55.5t-90.5 -20.5
q-63 0 -106 41t-43 111q0 73 45 114.5t117 41.5h152v58q0 57 -33.5 92.5t-95.5 35.5q-46 0 -78 -12.5t-67 -39.5v55q58 45 146 45q83 0 133 -44.5t50 -123.5v-277q0 -50 13 -87h-52z" />
    <glyph glyph-name="aring.t_o" horiz-adv-x="507" 
d="M243 603q-54 0 -85 31t-31 90t31.5 91.5t84.5 32.5t84.5 -32.5t31.5 -91.5t-31 -90t-85 -31zM243 640q74 0 74 84q0 41 -19 63.5t-55 22.5t-55 -22.5t-19 -63.5q0 -84 74 -84zM212 38q91 0 153 72v142h-151q-46 0 -77 -25t-31 -74q0 -56 28 -85.5t78 -29.5zM381 0
q-14 28 -14 66q-32 -35 -76.5 -55.5t-90.5 -20.5q-63 0 -106 41t-43 111q0 73 45 114.5t117 41.5h152v58q0 57 -33.5 92.5t-95.5 35.5q-46 0 -78 -12.5t-67 -39.5v55q58 45 146 45q83 0 133 -44.5t50 -123.5v-277q0 -50 13 -87h-52z" />
    <glyph glyph-name="amacron.t_o" horiz-adv-x="507" 
d="M118 660v45h291v-45h-291zM212 38q91 0 153 72v142h-151q-46 0 -77 -25t-31 -74q0 -56 28 -85.5t78 -29.5zM381 0q-14 28 -14 66q-32 -35 -76.5 -55.5t-90.5 -20.5q-63 0 -106 41t-43 111q0 73 45 114.5t117 41.5h152v58q0 57 -33.5 92.5t-95.5 35.5q-46 0 -78 -12.5
t-67 -39.5v55q58 45 146 45q83 0 133 -44.5t50 -123.5v-277q0 -50 13 -87h-52z" />
    <glyph glyph-name="abreve.t_o" horiz-adv-x="507" 
d="M263 614q-73 0 -115.5 38t-43.5 117h46q1 -61 29 -88.5t84 -27.5t84 27.5t29 88.5h47q-1 -79 -43.5 -117t-116.5 -38zM212 38q91 0 153 72v142h-151q-46 0 -77 -25t-31 -74q0 -56 28 -85.5t78 -29.5zM381 0q-14 28 -14 66q-32 -35 -76.5 -55.5t-90.5 -20.5q-63 0 -106 41
t-43 111q0 73 45 114.5t117 41.5h152v58q0 57 -33.5 92.5t-95.5 35.5q-46 0 -78 -12.5t-67 -39.5v55q58 45 146 45q83 0 133 -44.5t50 -123.5v-277q0 -50 13 -87h-52z" />
    <glyph glyph-name="aogonek.t_o" horiz-adv-x="507" 
d="M212 38q91 0 153 72v142h-151q-46 0 -77 -25t-31 -74q0 -56 28 -85.5t78 -29.5zM494 -177q-40 -8 -74 -8q-50 0 -82 24t-32 64q0 69 69 113q-8 24 -8 50q-32 -35 -76.5 -55.5t-90.5 -20.5q-63 0 -106 41t-43 111q0 73 45 114.5t117 41.5h152v58q0 57 -33.5 92.5
t-95.5 35.5q-46 0 -78 -12.5t-67 -39.5v55q58 45 146 45q83 0 133 -44.5t50 -123.5v-277q0 -50 13 -87h-37q-47 -37 -47 -83q0 -28 21 -43.5t57 -15.5q35 0 66 9z" />
    <glyph glyph-name="aringacute.t_o" horiz-adv-x="507" 
d="M221 864q63 89 98 158h81q-53 -75 -134 -158h-45zM248 603q-54 0 -85 31t-31 90t31.5 91.5t84.5 32.5t84.5 -32.5t31.5 -91.5t-31 -90t-85 -31zM248 640q74 0 74 84q0 41 -19 63.5t-55 22.5t-55 -22.5t-19 -63.5q0 -84 74 -84zM212 38q91 0 153 72v142h-151
q-46 0 -77 -25t-31 -74q0 -56 28 -85.5t78 -29.5zM381 0q-14 28 -14 66q-32 -35 -76.5 -55.5t-90.5 -20.5q-63 0 -106 41t-43 111q0 73 45 114.5t117 41.5h152v58q0 57 -33.5 92.5t-95.5 35.5q-46 0 -78 -12.5t-67 -39.5v55q58 45 146 45q83 0 133 -44.5t50 -123.5v-277
q0 -50 13 -87h-52z" />
    <glyph glyph-name="b.copy_1" horiz-adv-x="558" 
d="M270 -9q-91 0 -175 48v677h55v-282q62 98 166 98q79 0 128 -67t49 -195q0 -143 -62 -211t-161 -68zM274 41q73 0 118 54.5t45 174.5q0 209 -136 209q-86 0 -151 -96v-313q58 -29 124 -29z" />
    <glyph glyph-name="q.copy_1" horiz-adv-x="558" 
d="M289 532q90 0 174 -48v-658h-55v262q-63 -97 -165 -97q-80 0 -129 66.5t-49 194.5q0 143 62 211.5t162 68.5zM284 482q-73 0 -118 -54.5t-45 -175.5q0 -208 137 -208q86 0 150 95v313q-54 30 -124 30z" />
    <glyph glyph-name="r.copy_1" horiz-adv-x="457" 
d="M150 0h-55v522h55v-97q63 107 147 107q56 0 87.5 -38t31.5 -104v-42h-52v35q0 96 -80 96q-74 0 -134 -102v-377z" />
    <glyph glyph-name="racute.copy_1" horiz-adv-x="457" 
d="M179 603q60 83 98 158h82q-57 -80 -134 -158h-46zM150 0h-55v522h55v-97q63 107 147 107q56 0 87.5 -38t31.5 -104v-42h-52v35q0 96 -80 96q-74 0 -134 -102v-377z" />
    <glyph glyph-name="rcommaaccent.copy_1" horiz-adv-x="457" 
d="M150 0h-55v522h55v-97q63 107 147 107q56 0 87.5 -38t31.5 -104v-42h-52v35q0 96 -80 96q-74 0 -134 -102v-377zM33 -236q37 84 57 158h80q-43 -87 -95 -158h-42z" />
    <glyph glyph-name="rcaron.copy_1" horiz-adv-x="457" 
d="M199 610q-74 74 -146 129l25 28q70 -45 144 -106q70 62 141 106l25 -28q-81 -62 -144 -129h-45zM150 0h-55v522h55v-97q63 107 147 107q56 0 87.5 -38t31.5 -104v-42h-52v35q0 96 -80 96q-74 0 -134 -102v-377z" />
    <glyph glyph-name="G.s" horiz-adv-x="645" 
d="M530 0l-3 120q-52 -129 -202 -129q-121 0 -191 90t-70 275q0 176 71 262.5t194 86.5q94 0 153.5 -44.5t78.5 -121.5l-55 -15q-32 131 -178 131q-208 0 -208 -299q0 -315 205 -315q97 0 147 58t50 195v8h-205v50h258v-352h-45z" />
    <glyph glyph-name="Gcircumflex.s" horiz-adv-x="645" 
d="M183 788l-25 28q76 60 144 129h45q66 -67 146 -129l-26 -28q-66 41 -143 106q-69 -61 -141 -106zM530 0l-3 120q-52 -129 -202 -129q-121 0 -191 90t-70 275q0 176 71 262.5t194 86.5q94 0 153.5 -44.5t78.5 -121.5l-55 -15q-32 131 -178 131q-208 0 -208 -299
q0 -315 205 -315q97 0 147 58t50 195v8h-205v50h258v-352h-45z" />
    <glyph glyph-name="Gbreve.s" horiz-adv-x="645" 
d="M325 788q-73 0 -115.5 38t-43.5 117h46q1 -61 29 -88.5t84 -27.5t84 27.5t29 88.5h47q-1 -79 -43.5 -117t-116.5 -38zM530 0l-3 120q-52 -129 -202 -129q-121 0 -191 90t-70 275q0 176 71 262.5t194 86.5q94 0 153.5 -44.5t78.5 -121.5l-55 -15q-32 131 -178 131
q-208 0 -208 -299q0 -315 205 -315q97 0 147 58t50 195v8h-205v50h258v-352h-45z" />
    <glyph glyph-name="Gdotaccent.s" horiz-adv-x="645" 
d="M322 805q-42 0 -42 41q0 40 42 40t42 -41q0 -40 -42 -40zM530 0l-3 120q-52 -129 -202 -129q-121 0 -191 90t-70 275q0 176 71 262.5t194 86.5q94 0 153.5 -44.5t78.5 -121.5l-55 -15q-32 131 -178 131q-208 0 -208 -299q0 -315 205 -315q97 0 147 58t50 195v8h-205v50
h258v-352h-45z" />
    <glyph glyph-name="Gcommaaccent.s" horiz-adv-x="645" 
d="M530 0l-3 120q-52 -129 -202 -129q-121 0 -191 90t-70 275q0 176 71 262.5t194 86.5q94 0 153.5 -44.5t78.5 -121.5l-55 -15q-32 131 -178 131q-208 0 -208 -299q0 -315 205 -315q97 0 147 58t50 195v8h-205v50h258v-352h-45zM249 -236q40 90 58 158h79q-37 -79 -94 -158
h-43z" />
    <glyph glyph-name="g.ssg" horiz-adv-x="553" 
d="M275 482q-159 -2 -159 -220q0 -198 140 -198q85 0 146 99v280q-53 38 -127 39zM402 4v108q-67 -101 -162 -101q-80 0 -130 64t-50 187q0 137 58 203.5t149 66.5q76 0 137 -37v27h54v-518q0 -89 -57 -139.5t-141 -50.5q-108 0 -171 53l20 48q59 -51 151 -51
q61 0 101.5 34.5t40.5 105.5z" />
    <glyph glyph-name="gcircumflex.ssg" horiz-adv-x="553" 
d="M149 614l-25 28q72 55 144 129h45q75 -73 146 -129l-25 -28q-71 43 -143 107q-70 -62 -142 -107zM275 482q-159 -2 -159 -220q0 -198 140 -198q85 0 146 99v280q-53 38 -127 39zM402 4v108q-67 -101 -162 -101q-80 0 -130 64t-50 187q0 137 58 203.5t149 66.5
q76 0 137 -37v27h54v-518q0 -89 -57 -139.5t-141 -50.5q-108 0 -171 53l20 48q59 -51 151 -51q61 0 101.5 34.5t40.5 105.5z" />
    <glyph glyph-name="gbreve.ssg" horiz-adv-x="553" 
d="M292 614q-74 0 -116.5 38t-43.5 117h47q1 -61 29 -88.5t84 -27.5t83.5 27.5t28.5 88.5h47q-1 -79 -43.5 -117t-115.5 -38zM275 482q-159 -2 -159 -220q0 -198 140 -198q85 0 146 99v280q-53 38 -127 39zM402 4v108q-67 -101 -162 -101q-80 0 -130 64t-50 187
q0 137 58 203.5t149 66.5q76 0 137 -37v27h54v-518q0 -89 -57 -139.5t-141 -50.5q-108 0 -171 53l20 48q59 -51 151 -51q61 0 101.5 34.5t40.5 105.5z" />
    <glyph glyph-name="gdotaccent.ssg" horiz-adv-x="553" 
d="M292 631q-42 0 -42 41q0 40 42 40q41 0 41 -41q0 -40 -41 -40zM275 482q-159 -2 -159 -220q0 -198 140 -198q85 0 146 99v280q-53 38 -127 39zM402 4v108q-67 -101 -162 -101q-80 0 -130 64t-50 187q0 137 58 203.5t149 66.5q76 0 137 -37v27h54v-518q0 -89 -57 -139.5
t-141 -50.5q-108 0 -171 53l20 48q59 -51 151 -51q61 0 101.5 34.5t40.5 105.5z" />
    <glyph glyph-name="gcommaaccent.ssg" horiz-adv-x="553" 
d="M256 605q39 83 95 157h41q-36 -78 -58 -157h-78zM275 482q-159 -2 -159 -220q0 -198 140 -198q85 0 146 99v280q-53 38 -127 39zM402 4v108q-67 -101 -162 -101q-80 0 -130 64t-50 187q0 137 58 203.5t149 66.5q76 0 137 -37v27h54v-518q0 -89 -57 -139.5t-141 -50.5
q-108 0 -171 53l20 48q59 -51 151 -51q61 0 101.5 34.5t40.5 105.5z" />
    <glyph glyph-name="IJ.i_c" horiz-adv-x="808" 
d="M103 0v696h56v-696h-56zM509 -9q-90 0 -147 58.5t-63 165.5h56q14 -174 156 -174q75 0 114 49t39 130v476h56v-475q0 -103 -55.5 -166.5t-155.5 -63.5z" />
    <glyph glyph-name="IJ.i_o" horiz-adv-x="743" 
d="M103 0v696h56v-696h-56zM448 -9q-93 0 -156 48v59q74 -57 158 -57q76 0 115.5 46.5t39.5 123.5v485h56v-484q0 -100 -56 -160.5t-157 -60.5z" />
    <glyph glyph-name="C.c" horiz-adv-x="623" 
d="M324 -9q-120 0 -190 90t-70 274q0 176 70.5 263t190.5 87q102 0 163.5 -57.5t77.5 -165.5h-56q-13 88 -58 130.5t-128 42.5q-204 0 -204 -300q0 -314 204 -314q166 0 186 167l56 1q-12 -102 -74.5 -160t-167.5 -58z" />
    <glyph glyph-name="Ccedilla.c" horiz-adv-x="623" 
d="M331 -185q-73 0 -113 52l31 27q25 -41 83 -41q66 0 66 42q0 45 -86 49v47q-115 5 -181.5 94.5t-66.5 269.5q0 176 70.5 263t190.5 87q102 0 163.5 -57.5t77.5 -165.5h-56q-13 88 -58 130.5t-128 42.5q-204 0 -204 -300q0 -314 204 -314q166 0 186 167l56 1
q-11 -95 -66 -152.5t-148 -64.5v-20q45 -6 70.5 -26t25.5 -52q0 -39 -34 -59t-83 -20z" />
    <glyph glyph-name="Cacute.c" horiz-adv-x="623" 
d="M256 776q56 76 99 159h81q-60 -84 -134 -159h-46zM324 -9q-120 0 -190 90t-70 274q0 176 70.5 263t190.5 87q102 0 163.5 -57.5t77.5 -165.5h-56q-13 88 -58 130.5t-128 42.5q-204 0 -204 -300q0 -314 204 -314q166 0 186 167l56 1q-12 -102 -74.5 -160t-167.5 -58z" />
    <glyph glyph-name="Ccircumflex.c" horiz-adv-x="623" 
d="M188 788l-25 28q77 60 144 129h45q66 -67 146 -129l-25 -28q-66 40 -144 106q-69 -61 -141 -106zM324 -9q-120 0 -190 90t-70 274q0 176 70.5 263t190.5 87q102 0 163.5 -57.5t77.5 -165.5h-56q-13 88 -58 130.5t-128 42.5q-204 0 -204 -300q0 -314 204 -314
q166 0 186 167l56 1q-12 -102 -74.5 -160t-167.5 -58z" />
    <glyph glyph-name="Cdotaccent.c" horiz-adv-x="623" 
d="M330 805q-41 0 -41 41q0 40 41 40q42 0 42 -41q0 -40 -42 -40zM324 -9q-120 0 -190 90t-70 274q0 176 70.5 263t190.5 87q102 0 163.5 -57.5t77.5 -165.5h-56q-13 88 -58 130.5t-128 42.5q-204 0 -204 -300q0 -314 204 -314q166 0 186 167l56 1q-12 -102 -74.5 -160
t-167.5 -58z" />
    <glyph glyph-name="Ccaron.c" horiz-adv-x="623" 
d="M309 784q-76 74 -146 129l25 28q75 -48 143 -107q71 63 142 107l25 -28q-82 -63 -144 -129h-45zM324 -9q-120 0 -190 90t-70 274q0 176 70.5 263t190.5 87q102 0 163.5 -57.5t77.5 -165.5h-56q-13 88 -58 130.5t-128 42.5q-204 0 -204 -300q0 -314 204 -314
q166 0 186 167l56 1q-12 -102 -74.5 -160t-167.5 -58z" />
    <glyph glyph-name="G.c" horiz-adv-x="645" 
d="M530 0l-3 120q-52 -129 -202 -129q-121 0 -191 90t-70 275q0 176 70 262.5t191 86.5q99 0 159 -48t75 -140h-56q-12 72 -55.5 105t-123.5 33q-204 0 -204 -299q0 -315 205 -315q97 0 147 58t50 195v11h-205v50h258v-355h-45z" />
    <glyph glyph-name="Gcircumflex.c" horiz-adv-x="645" 
d="M183 788l-25 28q76 60 144 129h45q66 -67 146 -129l-26 -28q-66 41 -143 106q-69 -61 -141 -106zM530 0l-3 120q-52 -129 -202 -129q-121 0 -191 90t-70 275q0 176 70 262.5t191 86.5q99 0 159 -48t75 -140h-56q-12 72 -55.5 105t-123.5 33q-204 0 -204 -299
q0 -315 205 -315q97 0 147 58t50 195v11h-205v50h258v-355h-45z" />
    <glyph glyph-name="Gbreve.c" horiz-adv-x="645" 
d="M325 788q-73 0 -115.5 38t-43.5 117h46q1 -61 29 -88.5t84 -27.5t84 27.5t29 88.5h47q-1 -79 -43.5 -117t-116.5 -38zM530 0l-3 120q-52 -129 -202 -129q-121 0 -191 90t-70 275q0 176 70 262.5t191 86.5q99 0 159 -48t75 -140h-56q-12 72 -55.5 105t-123.5 33
q-204 0 -204 -299q0 -315 205 -315q97 0 147 58t50 195v11h-205v50h258v-355h-45z" />
    <glyph glyph-name="Gdotaccent.c" horiz-adv-x="645" 
d="M322 805q-42 0 -42 41q0 40 42 40t42 -41q0 -40 -42 -40zM530 0l-3 120q-52 -129 -202 -129q-121 0 -191 90t-70 275q0 176 70 262.5t191 86.5q99 0 159 -48t75 -140h-56q-12 72 -55.5 105t-123.5 33q-204 0 -204 -299q0 -315 205 -315q97 0 147 58t50 195v11h-205v50
h258v-355h-45z" />
    <glyph glyph-name="Gcommaaccent.c" horiz-adv-x="645" 
d="M530 0l-3 120q-52 -129 -202 -129q-121 0 -191 90t-70 275q0 176 70 262.5t191 86.5q99 0 159 -48t75 -140h-56q-12 72 -55.5 105t-123.5 33q-204 0 -204 -299q0 -315 205 -315q97 0 147 58t50 195v11h-205v50h258v-355h-45zM249 -236q40 90 58 158h79q-37 -79 -94 -158
h-43z" />
    <glyph glyph-name="J.c" horiz-adv-x="536" 
d="M240 -9q-90 0 -147 58.5t-64 165.5h56q15 -174 157 -174q75 0 113.5 49t38.5 130v476h56v-475q0 -103 -55 -166.5t-155 -63.5z" />
    <glyph glyph-name="Jcircumflex.c" horiz-adv-x="536" 
d="M263 788l-25 28q72 55 144 129h45q72 -72 146 -129l-25 -28q-66 40 -144 106q-69 -61 -141 -106zM240 -9q-90 0 -147 58.5t-64 165.5h56q15 -174 157 -174q75 0 113.5 49t38.5 130v476h56v-475q0 -103 -55 -166.5t-155 -63.5z" />
    <glyph glyph-name="Q.c" horiz-adv-x="650" 
d="M517 -68l-73 85q-51 -26 -118 -26q-122 0 -192 88.5t-70 276.5q0 177 70.5 263t192.5 86q120 0 189.5 -86t69.5 -263q0 -220 -97 -307l68 -77zM326 41q50 0 84 15l-83 95l40 37l88 -101q75 72 75 269q0 299 -204 299q-206 0 -206 -299q0 -169 53.5 -242t152.5 -73z" />
    <glyph glyph-name="S.c" horiz-adv-x="608" 
d="M314 44q77 0 124 37.5t47 102.5q0 62 -45 95.5t-137 47.5q-111 17 -165.5 62t-54.5 127q0 81 57.5 132.5t154.5 51.5q95 0 155 -50t72 -146h-57q-22 146 -171 146q-73 0 -114.5 -34t-41.5 -96t42 -94t133 -45q227 -31 227 -194q0 -84 -63 -138t-163 -54
q-105 -1 -171.5 52t-76.5 154h57q10 -78 59 -117.5t132 -39.5z" />
    <glyph glyph-name="Sacute.c" horiz-adv-x="608" 
d="M245 776q57 79 98 159h82q-56 -77 -134 -159h-46zM314 44q77 0 124 37.5t47 102.5q0 62 -45 95.5t-137 47.5q-111 17 -165.5 62t-54.5 127q0 81 57.5 132.5t154.5 51.5q95 0 155 -50t72 -146h-57q-22 146 -171 146q-73 0 -114.5 -34t-41.5 -96t42 -94t133 -45
q227 -31 227 -194q0 -84 -63 -138t-163 -54q-105 -1 -171.5 52t-76.5 154h57q10 -78 59 -117.5t132 -39.5z" />
    <glyph glyph-name="Scircumflex.c" horiz-adv-x="608" 
d="M167 788l-26 28q76 58 145 129h44q69 -69 147 -129l-26 -28q-62 38 -143 106q-71 -62 -141 -106zM314 44q77 0 124 37.5t47 102.5q0 62 -45 95.5t-137 47.5q-111 17 -165.5 62t-54.5 127q0 81 57.5 132.5t154.5 51.5q95 0 155 -50t72 -146h-57q-22 146 -171 146
q-73 0 -114.5 -34t-41.5 -96t42 -94t133 -45q227 -31 227 -194q0 -84 -63 -138t-163 -54q-105 -1 -171.5 52t-76.5 154h57q10 -78 59 -117.5t132 -39.5z" />
    <glyph glyph-name="Scedilla.c" horiz-adv-x="608" 
d="M310 -185q-73 0 -113 52l31 27q25 -41 83 -41q66 0 66 42q0 45 -86 49v51q-96 5 -155.5 58t-69.5 148h57q10 -78 59 -117.5t132 -39.5q77 0 124 37.5t47 102.5q0 62 -45 95.5t-137 47.5q-111 17 -165.5 62t-54.5 127q0 81 57.5 132.5t154.5 51.5q95 0 155 -50t72 -146
h-57q-22 146 -171 146q-73 0 -114.5 -34t-41.5 -96t42 -94t133 -45q227 -31 227 -194q0 -80 -58 -133.5t-152 -58.5v-23q45 -6 71 -26.5t26 -51.5q0 -39 -34 -59t-83 -20z" />
    <glyph glyph-name="Scaron.c" horiz-adv-x="608" 
d="M277 784q-74 74 -146 129l26 28q73 -48 143 -107q68 62 141 107l25 -28q-81 -63 -144 -129h-45zM314 44q77 0 124 37.5t47 102.5q0 62 -45 95.5t-137 47.5q-111 17 -165.5 62t-54.5 127q0 81 57.5 132.5t154.5 51.5q95 0 155 -50t72 -146h-57q-22 146 -171 146
q-73 0 -114.5 -34t-41.5 -96t42 -94t133 -45q227 -31 227 -194q0 -84 -63 -138t-163 -54q-105 -1 -171.5 52t-76.5 154h57q10 -78 59 -117.5t132 -39.5z" />
    <glyph glyph-name="Scommaaccent.c" horiz-adv-x="608" 
d="M314 44q77 0 124 37.5t47 102.5q0 62 -45 95.5t-137 47.5q-111 17 -165.5 62t-54.5 127q0 81 57.5 132.5t154.5 51.5q95 0 155 -50t72 -146h-57q-22 146 -171 146q-73 0 -114.5 -34t-41.5 -96t42 -94t133 -45q227 -31 227 -194q0 -84 -63 -138t-163 -54
q-105 -1 -171.5 52t-76.5 154h57q10 -78 59 -117.5t132 -39.5zM215 -236q37 81 58 158h80q-43 -87 -95 -158h-43z" />
    <glyph glyph-name="IJ.c" horiz-adv-x="950" 
d="M47 0v49h139v598h-139v49h334v-49h-139v-598h139v-49h-334zM651 -9q-89 0 -146.5 58.5t-63.5 165.5h56q14 -174 156 -174q75 0 114 49t39 130v476h56v-475q0 -103 -55.5 -166.5t-155.5 -63.5z" />
    <glyph glyph-name="a.c" horiz-adv-x="537" 
d="M229 38q55 0 101 30t47 85v93h-154q-50 -1 -81 -26.5t-31 -74.5q0 -47 32.5 -77t85.5 -30zM220 -10q-69 0 -116 42.5t-47 109.5q0 70 44.5 110t120.5 40h155v67q0 60 -34 92.5t-94 32.5q-114 0 -130 -106h-53q9 71 57 112.5t127 41.5q80 0 130.5 -45.5t50.5 -123.5v-255
q0 -40 20.5 -55t57.5 -4v-50q-47 -11 -80.5 11t-35.5 69l1 8q-21 -42 -68 -69.5t-106 -27.5z" />
    <glyph glyph-name="agrave.c" horiz-adv-x="537" 
d="M254 603q-76 76 -135 158h77q43 -82 99 -158h-41zM229 38q55 0 101 30t47 85v93h-154q-50 -1 -81 -26.5t-31 -74.5q0 -47 32.5 -77t85.5 -30zM220 -10q-69 0 -116 42.5t-47 109.5q0 70 44.5 110t120.5 40h155v67q0 60 -34 92.5t-94 32.5q-114 0 -130 -106h-53
q9 71 57 112.5t127 41.5q80 0 130.5 -45.5t50.5 -123.5v-255q0 -40 20.5 -55t57.5 -4v-50q-47 -11 -80.5 11t-35.5 69l1 8q-21 -42 -68 -69.5t-106 -27.5z" />
    <glyph glyph-name="aacute.c" horiz-adv-x="537" 
d="M189 603q55 74 99 158h81q-61 -86 -134 -158h-46zM229 38q55 0 101 30t47 85v93h-154q-50 -1 -81 -26.5t-31 -74.5q0 -47 32.5 -77t85.5 -30zM220 -10q-69 0 -116 42.5t-47 109.5q0 70 44.5 110t120.5 40h155v67q0 60 -34 92.5t-94 32.5q-114 0 -130 -106h-53
q9 71 57 112.5t127 41.5q80 0 130.5 -45.5t50.5 -123.5v-255q0 -40 20.5 -55t57.5 -4v-50q-47 -11 -80.5 11t-35.5 69l1 8q-21 -42 -68 -69.5t-106 -27.5z" />
    <glyph glyph-name="acircumflex.c" horiz-adv-x="537" 
d="M110 614l-26 28q69 53 145 129h44q76 -75 147 -129l-26 -28q-65 40 -143 107q-72 -64 -141 -107zM229 38q55 0 101 30t47 85v93h-154q-50 -1 -81 -26.5t-31 -74.5q0 -47 32.5 -77t85.5 -30zM220 -10q-69 0 -116 42.5t-47 109.5q0 70 44.5 110t120.5 40h155v67
q0 60 -34 92.5t-94 32.5q-114 0 -130 -106h-53q9 71 57 112.5t127 41.5q80 0 130.5 -45.5t50.5 -123.5v-255q0 -40 20.5 -55t57.5 -4v-50q-47 -11 -80.5 11t-35.5 69l1 8q-21 -42 -68 -69.5t-106 -27.5z" />
    <glyph glyph-name="atilde.c" horiz-adv-x="537" 
d="M317 616q-44 0 -80 60q-2 3 -9 13t-9.5 14t-8.5 11t-10.5 10t-10 5.5t-11.5 2.5q-46 0 -46 -97v-10h-48v13q0 63 26 101.5t72 38.5q29 0 46 -15t35 -43q11 -18 18 -28t18 -19.5t22 -9.5q45 0 45 96v10h48v-13q0 -63 -25.5 -101.5t-71.5 -38.5zM229 38q55 0 101 30t47 85
v93h-154q-50 -1 -81 -26.5t-31 -74.5q0 -47 32.5 -77t85.5 -30zM220 -10q-69 0 -116 42.5t-47 109.5q0 70 44.5 110t120.5 40h155v67q0 60 -34 92.5t-94 32.5q-114 0 -130 -106h-53q9 71 57 112.5t127 41.5q80 0 130.5 -45.5t50.5 -123.5v-255q0 -40 20.5 -55t57.5 -4v-50
q-47 -11 -80.5 11t-35.5 69l1 8q-21 -42 -68 -69.5t-106 -27.5z" />
    <glyph glyph-name="adieresis.c" horiz-adv-x="537" 
d="M333 631q-41 0 -41 41q0 40 41 40q42 0 42 -41q0 -40 -42 -40zM177 631q-42 0 -42 41q0 40 42 40q41 0 41 -41q0 -40 -41 -40zM229 38q55 0 101 30t47 85v93h-154q-50 -1 -81 -26.5t-31 -74.5q0 -47 32.5 -77t85.5 -30zM220 -10q-69 0 -116 42.5t-47 109.5q0 70 44.5 110
t120.5 40h155v67q0 60 -34 92.5t-94 32.5q-114 0 -130 -106h-53q9 71 57 112.5t127 41.5q80 0 130.5 -45.5t50.5 -123.5v-255q0 -40 20.5 -55t57.5 -4v-50q-47 -11 -80.5 11t-35.5 69l1 8q-21 -42 -68 -69.5t-106 -27.5z" />
    <glyph glyph-name="aring.c" horiz-adv-x="537" 
d="M243 603q-54 0 -85 31t-31 90t31.5 91.5t84.5 32.5t84.5 -32.5t31.5 -91.5t-31 -90t-85 -31zM243 640q74 0 74 84q0 41 -19 63.5t-55 22.5t-55 -22.5t-19 -63.5q0 -84 74 -84zM229 38q55 0 101 30t47 85v93h-154q-50 -1 -81 -26.5t-31 -74.5q0 -47 32.5 -77t85.5 -30z
M220 -10q-69 0 -116 42.5t-47 109.5q0 70 44.5 110t120.5 40h155v67q0 60 -34 92.5t-94 32.5q-114 0 -130 -106h-53q9 71 57 112.5t127 41.5q80 0 130.5 -45.5t50.5 -123.5v-255q0 -40 20.5 -55t57.5 -4v-50q-47 -11 -80.5 11t-35.5 69l1 8q-21 -42 -68 -69.5t-106 -27.5z
" />
    <glyph glyph-name="amacron.c" horiz-adv-x="537" 
d="M118 660v45h291v-45h-291zM229 38q55 0 101 30t47 85v93h-154q-50 -1 -81 -26.5t-31 -74.5q0 -47 32.5 -77t85.5 -30zM220 -10q-69 0 -116 42.5t-47 109.5q0 70 44.5 110t120.5 40h155v67q0 60 -34 92.5t-94 32.5q-114 0 -130 -106h-53q9 71 57 112.5t127 41.5
q80 0 130.5 -45.5t50.5 -123.5v-255q0 -40 20.5 -55t57.5 -4v-50q-47 -11 -80.5 11t-35.5 69l1 8q-21 -42 -68 -69.5t-106 -27.5z" />
    <glyph glyph-name="abreve.c" horiz-adv-x="537" 
d="M263 614q-73 0 -115.5 38t-43.5 117h46q1 -61 29 -88.5t84 -27.5t84 27.5t29 88.5h47q-1 -79 -43.5 -117t-116.5 -38zM229 38q55 0 101 30t47 85v93h-154q-50 -1 -81 -26.5t-31 -74.5q0 -47 32.5 -77t85.5 -30zM220 -10q-69 0 -116 42.5t-47 109.5q0 70 44.5 110
t120.5 40h155v67q0 60 -34 92.5t-94 32.5q-114 0 -130 -106h-53q9 71 57 112.5t127 41.5q80 0 130.5 -45.5t50.5 -123.5v-255q0 -40 20.5 -55t57.5 -4v-50q-47 -11 -80.5 11t-35.5 69l1 8q-21 -42 -68 -69.5t-106 -27.5z" />
    <glyph glyph-name="aogonek.c" horiz-adv-x="537" 
d="M229 38q55 0 101 30t47 85v93h-154q-50 -1 -81 -26.5t-31 -74.5q0 -47 32.5 -77t85.5 -30zM543 -177q-42 -8 -75 -8q-50 0 -81.5 24t-31.5 64q0 68 67 113q-26 21 -29 63l1 8q-21 -42 -68 -69.5t-106 -27.5q-69 0 -116 42.5t-47 109.5q0 70 44.5 110t120.5 40h155v67
q0 60 -34 92.5t-94 32.5q-114 0 -130 -106h-53q9 71 57 112.5t127 41.5q80 0 130.5 -45.5t50.5 -123.5v-255q0 -40 20.5 -55t57.5 -4v-50q-34 -7 -63 2q-49 -38 -49 -84q0 -28 21.5 -43.5t57.5 -15.5q34 0 66 9z" />
    <glyph glyph-name="aringacute.c" horiz-adv-x="537" 
d="M221 864q63 89 98 158h81q-53 -75 -134 -158h-45zM248 603q-54 0 -85 31t-31 90t31.5 91.5t84.5 32.5t84.5 -32.5t31.5 -91.5t-31 -90t-85 -31zM248 640q74 0 74 84q0 41 -19 63.5t-55 22.5t-55 -22.5t-19 -63.5q0 -84 74 -84zM229 38q55 0 101 30t47 85v93h-154
q-50 -1 -81 -26.5t-31 -74.5q0 -47 32.5 -77t85.5 -30zM220 -10q-69 0 -116 42.5t-47 109.5q0 70 44.5 110t120.5 40h155v67q0 60 -34 92.5t-94 32.5q-114 0 -130 -106h-53q9 71 57 112.5t127 41.5q80 0 130.5 -45.5t50.5 -123.5v-255q0 -40 20.5 -55t57.5 -4v-50
q-47 -11 -80.5 11t-35.5 69l1 8q-21 -42 -68 -69.5t-106 -27.5z" />
    <glyph glyph-name="b.c" horiz-adv-x="568" 
d="M150 0h-55v715h55v-295q16 52 56 82t98 30q86 0 142 -68.5t56 -202.5q0 -133 -55.5 -201.5t-142.5 -68.5q-58 0 -98 30t-56 82v-103zM297 482q-150 0 -150 -220q0 -111 39.5 -166t110.5 -55q70 0 109.5 55.5t39.5 165.5q0 220 -149 220z" />
    <glyph glyph-name="c.c" horiz-adv-x="523" 
d="M275 -9q-99 0 -154.5 67.5t-55.5 203.5q0 133 56 201.5t155 68.5q75 0 125 -45t64 -124h-56q-10 58 -46.5 88.5t-88.5 30.5q-152 0 -152 -220q0 -221 152 -221q53 0 89 30.5t46 88.5h56q-14 -80 -64 -124.5t-126 -44.5z" />
    <glyph glyph-name="ccedilla.c" horiz-adv-x="523" 
d="M270 -185q-74 0 -112 52l30 27q25 -41 83 -41q66 0 66 42q0 45 -86 49v48q-88 8 -137 75.5t-49 194.5q0 133 56 201.5t155 68.5q75 0 125 -45t64 -124h-56q-10 58 -46.5 88.5t-88.5 30.5q-152 0 -152 -220q0 -221 152 -221q53 0 89 30.5t46 88.5h56q-13 -76 -58.5 -120
t-115.5 -49v-19q45 -6 70.5 -26t25.5 -52q0 -39 -34 -59t-83 -20z" />
    <glyph glyph-name="cacute.c" horiz-adv-x="523" 
d="M215 603q59 80 99 158h81q-56 -80 -134 -158h-46zM275 -9q-99 0 -154.5 67.5t-55.5 203.5q0 133 56 201.5t155 68.5q75 0 125 -45t64 -124h-56q-10 58 -46.5 88.5t-88.5 30.5q-152 0 -152 -220q0 -221 152 -221q53 0 89 30.5t46 88.5h56q-14 -80 -64 -124.5t-126 -44.5z
" />
    <glyph glyph-name="ccircumflex.c" horiz-adv-x="523" 
d="M125 614l-25 28q70 55 144 129h45q72 -72 146 -129l-25 -28q-69 42 -144 107q-67 -60 -141 -107zM275 -9q-99 0 -154.5 67.5t-55.5 203.5q0 133 56 201.5t155 68.5q75 0 125 -45t64 -124h-56q-10 58 -46.5 88.5t-88.5 30.5q-152 0 -152 -220q0 -221 152 -221
q53 0 89 30.5t46 88.5h56q-14 -80 -64 -124.5t-126 -44.5z" />
    <glyph glyph-name="cdotaccent.c" horiz-adv-x="523" 
d="M257 631q-42 0 -42 41q0 40 42 40t42 -41q0 -40 -42 -40zM275 -9q-99 0 -154.5 67.5t-55.5 203.5q0 133 56 201.5t155 68.5q75 0 125 -45t64 -124h-56q-10 58 -46.5 88.5t-88.5 30.5q-152 0 -152 -220q0 -221 152 -221q53 0 89 30.5t46 88.5h56q-14 -80 -64 -124.5
t-126 -44.5z" />
    <glyph glyph-name="ccaron.c" horiz-adv-x="523" 
d="M236 610q-70 70 -147 129l26 28q65 -42 143 -106q73 63 141 106l26 -28q-85 -65 -145 -129h-44zM275 -9q-99 0 -154.5 67.5t-55.5 203.5q0 133 56 201.5t155 68.5q75 0 125 -45t64 -124h-56q-10 58 -46.5 88.5t-88.5 30.5q-152 0 -152 -220q0 -221 152 -221q53 0 89 30.5
t46 88.5h56q-14 -80 -64 -124.5t-126 -44.5z" />
    <glyph glyph-name="d.c" horiz-adv-x="567" 
d="M270 41q150 0 150 219q0 112 -39.5 167t-110.5 55q-70 0 -109.5 -55.5t-39.5 -166.5t39 -165t110 -54zM417 716h56v-716h-56v103q-16 -52 -56 -82t-98 -30q-87 0 -142.5 68.5t-55.5 201.5q0 134 56 202.5t142 68.5q58 0 98 -30t56 -82v296z" />
    <glyph glyph-name="dcaron.c" horiz-adv-x="567" 
d="M527 562q33 97 41 185h60q-16 -105 -62 -185h-39zM270 41q150 0 150 219q0 112 -39.5 167t-110.5 55q-70 0 -109.5 -55.5t-39.5 -166.5t39 -165t110 -54zM417 716h56v-716h-56v103q-16 -52 -56 -82t-98 -30q-87 0 -142.5 68.5t-55.5 201.5q0 134 56 202.5t142 68.5
q58 0 98 -30t56 -82v296z" />
    <glyph glyph-name="e.c" horiz-adv-x="536" 
d="M279 484q-143 0 -156 -184h298v4q-1 90 -39.5 135t-102.5 45zM474 140q-10 -68 -64.5 -108.5t-133.5 -40.5q-101 0 -156 67.5t-55 204.5q0 133 57 201t157 68q86 0 142 -62t56 -172v-45h-355q1 -112 39.5 -163.5t114.5 -51.5q119 0 142 102h56z" />
    <glyph glyph-name="egrave.c" horiz-adv-x="536" 
d="M287 603q-80 80 -136 158h78q37 -72 98 -158h-40zM279 484q-143 0 -156 -184h298v4q-1 90 -39.5 135t-102.5 45zM474 140q-10 -68 -64.5 -108.5t-133.5 -40.5q-101 0 -156 67.5t-55 204.5q0 133 57 201t157 68q86 0 142 -62t56 -172v-45h-355q1 -112 39.5 -163.5
t114.5 -51.5q119 0 142 102h56z" />
    <glyph glyph-name="eacute.c" horiz-adv-x="536" 
d="M206 603q55 74 99 158h81q-56 -80 -134 -158h-46zM279 484q-143 0 -156 -184h298v4q-1 90 -39.5 135t-102.5 45zM474 140q-10 -68 -64.5 -108.5t-133.5 -40.5q-101 0 -156 67.5t-55 204.5q0 133 57 201t157 68q86 0 142 -62t56 -172v-45h-355q1 -112 39.5 -163.5
t114.5 -51.5q119 0 142 102h56z" />
    <glyph glyph-name="ecircumflex.c" horiz-adv-x="536" 
d="M125 614l-25 28q70 55 144 129h45q72 -72 146 -129l-25 -28q-69 42 -144 107q-67 -60 -141 -107zM279 484q-143 0 -156 -184h298v4q-1 90 -39.5 135t-102.5 45zM474 140q-10 -68 -64.5 -108.5t-133.5 -40.5q-101 0 -156 67.5t-55 204.5q0 133 57 201t157 68q86 0 142 -62
t56 -172v-45h-355q1 -112 39.5 -163.5t114.5 -51.5q119 0 142 102h56z" />
    <glyph glyph-name="edieresis.c" horiz-adv-x="536" 
d="M346 631q-42 0 -42 41q0 40 42 40q41 0 41 -41q0 -40 -41 -40zM189 631q-42 0 -42 41q0 40 42 40t42 -41q0 -40 -42 -40zM279 484q-143 0 -156 -184h298v4q-1 90 -39.5 135t-102.5 45zM474 140q-10 -68 -64.5 -108.5t-133.5 -40.5q-101 0 -156 67.5t-55 204.5
q0 133 57 201t157 68q86 0 142 -62t56 -172v-45h-355q1 -112 39.5 -163.5t114.5 -51.5q119 0 142 102h56z" />
    <glyph glyph-name="emacron.c" horiz-adv-x="536" 
d="M122 659v45h291v-45h-291zM279 484q-143 0 -156 -184h298v4q-1 90 -39.5 135t-102.5 45zM474 140q-10 -68 -64.5 -108.5t-133.5 -40.5q-101 0 -156 67.5t-55 204.5q0 133 57 201t157 68q86 0 142 -62t56 -172v-45h-355q1 -112 39.5 -163.5t114.5 -51.5q119 0 142 102h56z
" />
    <glyph glyph-name="ebreve.c" horiz-adv-x="536" 
d="M267 614q-73 0 -115.5 38t-43.5 117h46q1 -61 29 -88.5t84 -27.5t84 27.5t29 88.5h47q-1 -79 -43.5 -117t-116.5 -38zM279 484q-143 0 -156 -184h298v4q-1 90 -39.5 135t-102.5 45zM474 140q-10 -68 -64.5 -108.5t-133.5 -40.5q-101 0 -156 67.5t-55 204.5q0 133 57 201
t157 68q86 0 142 -62t56 -172v-45h-355q1 -112 39.5 -163.5t114.5 -51.5q119 0 142 102h56z" />
    <glyph glyph-name="edotaccent.c" horiz-adv-x="536" 
d="M267 631q-41 0 -41 41q0 40 41 40q42 0 42 -41q0 -40 -42 -40zM279 484q-143 0 -156 -184h298v4q-1 90 -39.5 135t-102.5 45zM474 140q-10 -68 -64.5 -108.5t-133.5 -40.5q-101 0 -156 67.5t-55 204.5q0 133 57 201t157 68q86 0 142 -62t56 -172v-45h-355
q1 -112 39.5 -163.5t114.5 -51.5q119 0 142 102h56z" />
    <glyph glyph-name="eogonek.c" horiz-adv-x="536" 
d="M279 484q-143 0 -156 -184h298v4q-1 90 -39.5 135t-102.5 45zM456 -177q-40 -8 -74 -8q-50 0 -82 24t-32 64q0 48 40 90q-10 -2 -32 -2q-101 0 -156 67.5t-55 204.5q0 133 57 201t157 68q86 0 142 -62t56 -172v-45h-355q1 -112 39.5 -163.5t114.5 -51.5q119 0 142 102h56
q-14 -91 -102 -130q-61 -40 -61 -93q0 -28 21 -43.5t57 -15.5q35 0 66 9z" />
    <glyph glyph-name="ecaron.c" horiz-adv-x="536" 
d="M244 610q-69 69 -146 129l25 28q72 -46 143 -106q74 64 142 106l25 -28q-86 -66 -144 -129h-45zM279 484q-143 0 -156 -184h298v4q-1 90 -39.5 135t-102.5 45zM474 140q-10 -68 -64.5 -108.5t-133.5 -40.5q-101 0 -156 67.5t-55 204.5q0 133 57 201t157 68q86 0 142 -62
t56 -172v-45h-355q1 -112 39.5 -163.5t114.5 -51.5q119 0 142 102h56z" />
    <glyph glyph-name="f.c" horiz-adv-x="379" 
d="M147 0v473h-109v49h109v43q0 76 38 113.5t109 37.5h56v-49h-53q-43 0 -68.5 -25t-25.5 -76v-44h148v-49h-148v-473h-56z" />
    <glyph glyph-name="g.c" horiz-adv-x="562" 
d="M265 68q71 0 110 50.5t39 154.5q0 105 -39 157t-110 52q-70 0 -109.5 -52t-39.5 -156t39 -155t110 -51zM268 -186q-79 0 -132 37t-59 115h54q5 -54 43 -78t94 -24q60 0 102 33t42 99v132q-16 -51 -56 -80.5t-98 -29.5q-87 0 -143 65t-56 192t56 192t143 65q58 0 98 -29
t56 -80v99h55v-526q0 -84 -59 -133t-140 -49z" />
    <glyph glyph-name="gcircumflex.c" horiz-adv-x="562" 
d="M149 614l-25 28q72 55 144 129h45q75 -73 146 -129l-25 -28q-71 43 -143 107q-70 -62 -142 -107zM265 68q71 0 110 50.5t39 154.5q0 105 -39 157t-110 52q-70 0 -109.5 -52t-39.5 -156t39 -155t110 -51zM268 -186q-79 0 -132 37t-59 115h54q5 -54 43 -78t94 -24
q60 0 102 33t42 99v132q-16 -51 -56 -80.5t-98 -29.5q-87 0 -143 65t-56 192t56 192t143 65q58 0 98 -29t56 -80v99h55v-526q0 -84 -59 -133t-140 -49z" />
    <glyph glyph-name="gbreve.c" horiz-adv-x="562" 
d="M292 614q-74 0 -116.5 38t-43.5 117h47q1 -61 29 -88.5t84 -27.5t83.5 27.5t28.5 88.5h47q-1 -79 -43.5 -117t-115.5 -38zM265 68q71 0 110 50.5t39 154.5q0 105 -39 157t-110 52q-70 0 -109.5 -52t-39.5 -156t39 -155t110 -51zM268 -186q-79 0 -132 37t-59 115h54
q5 -54 43 -78t94 -24q60 0 102 33t42 99v132q-16 -51 -56 -80.5t-98 -29.5q-87 0 -143 65t-56 192t56 192t143 65q58 0 98 -29t56 -80v99h55v-526q0 -84 -59 -133t-140 -49z" />
    <glyph glyph-name="gdotaccent.c" horiz-adv-x="562" 
d="M292 631q-42 0 -42 41q0 40 42 40q41 0 41 -41q0 -40 -41 -40zM265 68q71 0 110 50.5t39 154.5q0 105 -39 157t-110 52q-70 0 -109.5 -52t-39.5 -156t39 -155t110 -51zM268 -186q-79 0 -132 37t-59 115h54q5 -54 43 -78t94 -24q60 0 102 33t42 99v132q-16 -51 -56 -80.5
t-98 -29.5q-87 0 -143 65t-56 192t56 192t143 65q58 0 98 -29t56 -80v99h55v-526q0 -84 -59 -133t-140 -49z" />
    <glyph glyph-name="gcommaaccent.c" horiz-adv-x="562" 
d="M256 605q39 83 95 157h41q-36 -78 -58 -157h-78zM265 68q71 0 110 50.5t39 154.5q0 105 -39 157t-110 52q-70 0 -109.5 -52t-39.5 -156t39 -155t110 -51zM268 -186q-79 0 -132 37t-59 115h54q5 -54 43 -78t94 -24q60 0 102 33t42 99v132q-16 -51 -56 -80.5t-98 -29.5
q-87 0 -143 65t-56 192t56 192t143 65q58 0 98 -29t56 -80v99h55v-526q0 -84 -59 -133t-140 -49z" />
    <glyph glyph-name="h.c" 
d="M150 0h-55v716h55v-279q21 41 62 68t95 27q77 0 124 -53.5t47 -148.5v-330h-56v323q0 76 -32.5 116.5t-95.5 40.5q-123 0 -144 -152v-328z" />
    <glyph glyph-name="hcircumflex.c" 
d="M-19 788l-26 28q76 58 145 129h44q69 -69 147 -129l-26 -28q-62 38 -143 106q-75 -65 -141 -106zM150 0h-55v716h55v-279q21 41 62 68t95 27q77 0 124 -53.5t47 -148.5v-330h-56v323q0 76 -32.5 116.5t-95.5 40.5q-123 0 -144 -152v-328z" />
    <glyph glyph-name="j.c" horiz-adv-x="269" 
d="M141 631q-41 0 -41 41q0 40 41 40q42 0 42 -41q0 -40 -42 -40zM23 -174h-65v50h62q93 0 93 96v550h56v-550q0 -73 -38 -109.5t-108 -36.5z" />
    <glyph glyph-name="m.c" horiz-adv-x="843" 
d="M150 324v-324h-55v522h55v-81q15 39 52 65.5t87 26.5t89 -28.5t57 -78.5q19 51 60.5 79t95.5 28q72 0 118.5 -54.5t46.5 -148.5v-330h-56v323q0 74 -32.5 116t-88.5 42q-59 0 -92.5 -42t-33.5 -115v-324h-56v323q0 74 -32 116t-89 42q-59 0 -92.5 -42t-33.5 -115z" />
    <glyph glyph-name="n.c" 
d="M150 0h-55v522h55v-81q14 39 55 65.5t96 26.5q77 0 127 -55t50 -148v-330h-56v323q0 74 -35.5 116t-97.5 42q-65 0 -102 -41.5t-37 -115.5v-324z" />
    <glyph glyph-name="ntilde.c" 
d="M367 616q-44 0 -80 60q-2 3 -9 13t-9.5 14t-8.5 11t-10.5 10t-10 5.5t-11.5 2.5q-46 0 -46 -97v-10h-48v13q0 63 26 101.5t72 38.5q20 0 36 -9.5t24.5 -20t20.5 -28.5q11 -18 18 -28t18 -19.5t22 -9.5q45 0 45 96v10h47v-13q0 -63 -25.5 -101.5t-70.5 -38.5zM150 0h-55
v522h55v-81q14 39 55 65.5t96 26.5q77 0 127 -55t50 -148v-330h-56v323q0 74 -35.5 116t-97.5 42q-65 0 -102 -41.5t-37 -115.5v-324z" />
    <glyph glyph-name="nacute.c" 
d="M245 603q56 76 98 158h82q-57 -80 -134 -158h-46zM150 0h-55v522h55v-81q14 39 55 65.5t96 26.5q77 0 127 -55t50 -148v-330h-56v323q0 74 -35.5 116t-97.5 42q-65 0 -102 -41.5t-37 -115.5v-324z" />
    <glyph glyph-name="ncommaaccent.c" 
d="M150 0h-55v522h55v-81q14 39 55 65.5t96 26.5q77 0 127 -55t50 -148v-330h-56v323q0 74 -35.5 116t-97.5 42q-65 0 -102 -41.5t-37 -115.5v-324zM187 -236q40 90 58 158h79q-37 -79 -94 -158h-43z" />
    <glyph glyph-name="ncaron.c" 
d="M267 610q-68 69 -146 129l25 28q70 -45 144 -106q70 62 141 106l25 -28q-81 -62 -144 -129h-45zM150 0h-55v522h55v-81q14 39 55 65.5t96 26.5q77 0 127 -55t50 -148v-330h-56v323q0 74 -35.5 116t-97.5 42q-65 0 -102 -41.5t-37 -115.5v-324z" />
    <glyph glyph-name="p.c" horiz-adv-x="568" 
d="M297 482q-150 0 -150 -220q0 -111 39.5 -166t110.5 -55q70 0 109.5 55.5t39.5 165.5q0 220 -149 220zM150 -174h-55v696h55v-102q16 52 56 82t98 30q86 0 142 -68.5t56 -202.5q0 -133 -55.5 -201.5t-142.5 -68.5q-58 0 -98 30t-56 82v-277z" />
    <glyph glyph-name="q.c" horiz-adv-x="567" 
d="M417 522h56v-695h-56v276q-16 -52 -56 -82t-98 -30q-87 0 -142.5 68.5t-55.5 201.5q0 134 56 202.5t142 68.5q58 0 98 -30t56 -82v102zM270 41q150 0 150 219q0 112 -39.5 167t-110.5 55q-70 0 -109.5 -55.5t-39.5 -166.5t39 -165t110 -54z" />
    <glyph glyph-name="r.c" horiz-adv-x="368" 
d="M150 0h-55v522h55v-99q17 46 64.5 72.5t106.5 26.5h25v-49h-25q-68 0 -119.5 -39.5t-51.5 -112.5v-321z" />
    <glyph glyph-name="racute.c" horiz-adv-x="368" 
d="M179 603q60 83 98 158h82q-57 -80 -134 -158h-46zM150 0h-55v522h55v-99q17 46 64.5 72.5t106.5 26.5h25v-49h-25q-68 0 -119.5 -39.5t-51.5 -112.5v-321z" />
    <glyph glyph-name="rcommaaccent.c" horiz-adv-x="368" 
d="M150 0h-55v522h55v-99q17 46 64.5 72.5t106.5 26.5h25v-49h-25q-68 0 -119.5 -39.5t-51.5 -112.5v-321zM33 -236q37 84 57 158h80q-43 -87 -95 -158h-42z" />
    <glyph glyph-name="rcaron.c" horiz-adv-x="368" 
d="M199 610q-74 74 -146 129l25 28q70 -45 144 -106q70 62 141 106l25 -28q-81 -62 -144 -129h-45zM150 0h-55v522h55v-99q17 46 64.5 72.5t106.5 26.5h25v-49h-25q-68 0 -119.5 -39.5t-51.5 -112.5v-321z" />
    <glyph glyph-name="s.c" horiz-adv-x="499" 
d="M259 -9q-81 0 -138 38t-65 118h54q7 -56 48 -81t101 -25q56 0 94.5 24t38.5 72q0 47 -32 67t-114 32q-97 13 -142 46.5t-45 101.5q0 69 51 108.5t128 39.5q74 0 129 -39.5t61 -118.5h-56q-6 56 -43.5 82t-90.5 26t-88.5 -24t-35.5 -71t32 -67.5t116 -31.5q95 -15 140 -47
t45 -100q0 -70 -54.5 -110t-133.5 -40z" />
    <glyph glyph-name="sacute.c" horiz-adv-x="499" 
d="M184 603q55 74 99 158h81q-57 -80 -134 -158h-46zM259 -9q-81 0 -138 38t-65 118h54q7 -56 48 -81t101 -25q56 0 94.5 24t38.5 72q0 47 -32 67t-114 32q-97 13 -142 46.5t-45 101.5q0 69 51 108.5t128 39.5q74 0 129 -39.5t61 -118.5h-56q-6 56 -43.5 82t-90.5 26
t-88.5 -24t-35.5 -71t32 -67.5t116 -31.5q95 -15 140 -47t45 -100q0 -70 -54.5 -110t-133.5 -40z" />
    <glyph glyph-name="scircumflex.c" horiz-adv-x="499" 
d="M96 614l-26 28q72 55 144 129h45q75 -73 146 -129l-25 -28q-65 40 -143 107q-69 -61 -141 -107zM259 -9q-81 0 -138 38t-65 118h54q7 -56 48 -81t101 -25q56 0 94.5 24t38.5 72q0 47 -32 67t-114 32q-97 13 -142 46.5t-45 101.5q0 69 51 108.5t128 39.5q74 0 129 -39.5
t61 -118.5h-56q-6 56 -43.5 82t-90.5 26t-88.5 -24t-35.5 -71t32 -67.5t116 -31.5q95 -15 140 -47t45 -100q0 -70 -54.5 -110t-133.5 -40z" />
    <glyph glyph-name="scedilla.c" horiz-adv-x="499" 
d="M259 -185q-73 0 -113 52l31 27q25 -41 83 -41q66 0 66 42q0 45 -86 49v47q-75 5 -126 43t-58 113h54q7 -56 48 -81t101 -25q56 0 94.5 24t38.5 72q0 47 -32 67t-114 32q-97 13 -142 46.5t-45 101.5q0 69 51 108.5t128 39.5q74 0 129 -39.5t61 -118.5h-56q-6 56 -43.5 82
t-90.5 26t-88.5 -24t-35.5 -71t32 -67.5t116 -31.5q95 -15 140 -47t45 -100q0 -66 -48 -105t-120 -44v-20q45 -6 71 -26.5t26 -51.5q0 -39 -34 -59t-83 -20z" />
    <glyph glyph-name="scaron.c" horiz-adv-x="499" 
d="M216 610q-68 69 -146 129l26 28q70 -46 143 -106q76 66 141 106l25 -28q-86 -67 -144 -129h-45zM259 -9q-81 0 -138 38t-65 118h54q7 -56 48 -81t101 -25q56 0 94.5 24t38.5 72q0 47 -32 67t-114 32q-97 13 -142 46.5t-45 101.5q0 69 51 108.5t128 39.5q74 0 129 -39.5
t61 -118.5h-56q-6 56 -43.5 82t-90.5 26t-88.5 -24t-35.5 -71t32 -67.5t116 -31.5q95 -15 140 -47t45 -100q0 -70 -54.5 -110t-133.5 -40z" />
    <glyph glyph-name="scommaaccent.c" horiz-adv-x="499" 
d="M259 -9q-81 0 -138 38t-65 118h54q7 -56 48 -81t101 -25q56 0 94.5 24t38.5 72q0 47 -32 67t-114 32q-97 13 -142 46.5t-45 101.5q0 69 51 108.5t128 39.5q74 0 129 -39.5t61 -118.5h-56q-6 56 -43.5 82t-90.5 26t-88.5 -24t-35.5 -71t32 -67.5t116 -31.5q95 -15 140 -47
t45 -100q0 -70 -54.5 -110t-133.5 -40zM151 -236q37 81 58 158h80q-43 -87 -95 -158h-43z" />
    <glyph glyph-name="t.c" horiz-adv-x="390" 
d="M283 0q-72 0 -110 38.5t-38 112.5v322h-107v49h107v144h56v-144h157v-49h-157v-323q0 -50 25 -75t70 -25h64v-50h-67z" />
    <glyph glyph-name="tcedilla.c" horiz-adv-x="390" 
d="M255 -185q-73 0 -113 52l31 27q25 -41 83 -41q66 0 66 42q0 45 -86 49v61q-101 23 -101 146v322h-107v49h107v144h56v-144h157v-49h-157v-323q0 -50 25 -75t70 -25h64v-50h-67h-8v-28q45 -6 71 -26.5t26 -51.5q0 -39 -34 -59t-83 -20z" />
    <glyph glyph-name="tcaron.c" horiz-adv-x="390" 
d="M296 625q32 99 40 185h60q-16 -105 -62 -185h-38zM283 0q-72 0 -110 38.5t-38 112.5v322h-107v49h107v144h56v-144h157v-49h-157v-323q0 -50 25 -75t70 -25h64v-50h-67z" />
    <glyph glyph-name="tcommaaccent.c" horiz-adv-x="390" 
d="M283 0q-72 0 -110 38.5t-38 112.5v322h-107v49h107v144h56v-144h157v-49h-157v-323q0 -50 25 -75t70 -25h64v-50h-67zM157 -236q37 84 57 158h80q-43 -87 -95 -158h-42z" />
    <glyph glyph-name="u.c" 
d="M416 522h56v-522h-56v81q-14 -38 -55.5 -64.5t-96.5 -26.5q-77 0 -127 54.5t-50 147.5v330h56v-323q0 -74 35.5 -115.5t98.5 -41.5q65 0 102 41.5t37 114.5v324z" />
    <glyph glyph-name="ugrave.c" 
d="M280 603q-80 82 -135 158h78q37 -72 98 -158h-41zM416 522h56v-522h-56v81q-14 -38 -55.5 -64.5t-96.5 -26.5q-77 0 -127 54.5t-50 147.5v330h56v-323q0 -74 35.5 -115.5t98.5 -41.5q65 0 102 41.5t37 114.5v324z" />
    <glyph glyph-name="uacute.c" 
d="M232 603q60 83 98 158h82q-59 -82 -135 -158h-45zM416 522h56v-522h-56v81q-14 -38 -55.5 -64.5t-96.5 -26.5q-77 0 -127 54.5t-50 147.5v330h56v-323q0 -74 35.5 -115.5t98.5 -41.5q65 0 102 41.5t37 114.5v324z" />
    <glyph glyph-name="ucircumflex.c" 
d="M141 614l-25 28q65 50 144 129h45q80 -78 146 -129l-25 -28q-71 43 -143 107q-70 -62 -142 -107zM416 522h56v-522h-56v81q-14 -38 -55.5 -64.5t-96.5 -26.5q-77 0 -127 54.5t-50 147.5v330h56v-323q0 -74 35.5 -115.5t98.5 -41.5q65 0 102 41.5t37 114.5v324z" />
    <glyph glyph-name="udieresis.c" 
d="M366 631q-42 0 -42 41q0 40 42 40t42 -41q0 -40 -42 -40zM209 631q-41 0 -41 41q0 40 41 40q42 0 42 -41q0 -40 -42 -40zM416 522h56v-522h-56v81q-14 -38 -55.5 -64.5t-96.5 -26.5q-77 0 -127 54.5t-50 147.5v330h56v-323q0 -74 35.5 -115.5t98.5 -41.5q65 0 102 41.5
t37 114.5v324z" />
    <glyph glyph-name="utilde.c" 
d="M352 616q-27 0 -45 15.5t-36 44.5q-2 3 -6.5 10t-6.5 10t-6.5 9.5t-7.5 9t-7 6.5t-7.5 6t-8 3.5t-9.5 1.5q-45 0 -45 -97v-10h-48v13q0 63 25.5 101.5t71.5 38.5q29 0 46 -14.5t36 -43.5q12 -19 18 -28t17.5 -19t22.5 -10q44 0 44 96v10h48v-13q0 -63 -25.5 -101.5
t-70.5 -38.5zM416 522h56v-522h-56v81q-14 -38 -55.5 -64.5t-96.5 -26.5q-77 0 -127 54.5t-50 147.5v330h56v-323q0 -74 35.5 -115.5t98.5 -41.5q65 0 102 41.5t37 114.5v324z" />
    <glyph glyph-name="umacron.c" 
d="M138 659v45h291v-45h-291zM416 522h56v-522h-56v81q-14 -38 -55.5 -64.5t-96.5 -26.5q-77 0 -127 54.5t-50 147.5v330h56v-323q0 -74 35.5 -115.5t98.5 -41.5q65 0 102 41.5t37 114.5v324z" />
    <glyph glyph-name="ubreve.c" 
d="M284 614q-74 0 -116.5 38t-43.5 117h47q1 -61 29 -88.5t84 -27.5t83.5 27.5t28.5 88.5h47q-1 -79 -43.5 -117t-115.5 -38zM416 522h56v-522h-56v81q-14 -38 -55.5 -64.5t-96.5 -26.5q-77 0 -127 54.5t-50 147.5v330h56v-323q0 -74 35.5 -115.5t98.5 -41.5q65 0 102 41.5
t37 114.5v324z" />
    <glyph glyph-name="uring.c" 
d="M284 603q-54 0 -85 31t-31 90t31 91.5t85 32.5q53 0 84 -32.5t31 -91.5t-30.5 -90t-84.5 -31zM284 640q35 0 54.5 22t19.5 62q0 41 -19.5 63.5t-54.5 22.5q-36 0 -55.5 -22.5t-19.5 -63.5q0 -40 19.5 -62t55.5 -22zM416 522h56v-522h-56v81q-14 -38 -55.5 -64.5
t-96.5 -26.5q-77 0 -127 54.5t-50 147.5v330h56v-323q0 -74 35.5 -115.5t98.5 -41.5q65 0 102 41.5t37 114.5v324z" />
    <glyph glyph-name="uhungarumlaut.c" 
d="M179 603q47 94 68 158h64q-28 -58 -96 -158h-36zM325 603q49 97 70 158h63q-26 -53 -96 -158h-37zM416 522h56v-522h-56v81q-14 -38 -55.5 -64.5t-96.5 -26.5q-77 0 -127 54.5t-50 147.5v330h56v-323q0 -74 35.5 -115.5t98.5 -41.5q65 0 102 41.5t37 114.5v324z" />
    <glyph glyph-name="uogonek.c" 
d="M532 -177q-42 -8 -75 -8q-50 0 -82 24t-32 64q0 70 73 116v62q-14 -38 -55.5 -64.5t-96.5 -26.5q-77 0 -127 54.5t-50 147.5v330h56v-323q0 -74 35.5 -115.5t98.5 -41.5q65 0 102 41.5t37 114.5v324h56v-522h-39q-47 -38 -47 -83q0 -27 21 -43t57 -16q35 0 66 9z" />
    <glyph glyph-name="y.c" horiz-adv-x="497" 
d="M103 -179h-27v50h30q45 0 70 26.5t42 80.5l6 16l-184 528h59l153 -457l151 457h57l-201 -571q-44 -130 -156 -130z" />
    <glyph glyph-name="yacute.c" horiz-adv-x="497" 
d="M174 603q60 83 98 158h82q-57 -80 -134 -158h-46zM103 -179h-27v50h30q45 0 70 26.5t42 80.5l6 16l-184 528h59l153 -457l151 457h57l-201 -571q-44 -130 -156 -130z" />
    <glyph glyph-name="ydieresis.c" horiz-adv-x="497" 
d="M326 631q-41 0 -41 41q0 40 41 40q42 0 42 -41q0 -40 -42 -40zM170 631q-42 0 -42 41q0 40 42 40q41 0 41 -41q0 -40 -41 -40zM103 -179h-27v50h30q45 0 70 26.5t42 80.5l6 16l-184 528h59l153 -457l151 457h57l-201 -571q-44 -130 -156 -130z" />
    <glyph glyph-name="ycircumflex.c" horiz-adv-x="497" 
d="M106 614l-26 28q69 53 145 129h44q76 -75 147 -129l-26 -28q-65 40 -143 107q-72 -64 -141 -107zM103 -179h-27v50h30q45 0 70 26.5t42 80.5l6 16l-184 528h59l153 -457l151 457h57l-201 -571q-44 -130 -156 -130z" />
    <glyph glyph-name="ygrave.c" horiz-adv-x="497" 
d="M267 603q-76 76 -135 158h77q43 -82 99 -158h-41zM103 -179h-27v50h30q45 0 70 26.5t42 80.5l6 16l-184 528h59l153 -457l151 457h57l-201 -571q-44 -130 -156 -130z" />
    <glyph glyph-name="napostrophe.c" 
d="M9 603q55 74 99 158h81q-61 -86 -134 -158h-46zM150 0h-55v522h55v-81q14 39 55 65.5t96 26.5q77 0 127 -55t50 -148v-330h-56v323q0 74 -35.5 116t-97.5 42q-65 0 -102 -41.5t-37 -115.5v-324z" />
    <glyph glyph-name="two.c" horiz-adv-x="626" 
d="M103 0v100q0 87 50.5 141.5t157.5 108.5q98 49 131 85.5t33 89.5q0 59 -42 94.5t-111 35.5q-78 0 -118.5 -37.5t-49.5 -114.5h-55q8 97 64.5 149.5t159.5 52.5q92 0 149.5 -49.5t57.5 -130.5q0 -68 -44.5 -118t-147.5 -102q-100 -51 -139.5 -94t-39.5 -111v-50h379v-50
h-435z" />
    <glyph glyph-name="three.c" horiz-adv-x="626" 
d="M317 -9q-227 0 -242 197h59q12 -148 183 -148q80 0 124.5 39t44.5 119q0 76 -39.5 112t-135.5 36h-98v49h99q88 0 123.5 29.5t35.5 95.5q0 68 -44.5 102.5t-115.5 34.5q-75 0 -114.5 -31t-46.5 -102h-59q23 181 220 181q93 0 154 -47.5t61 -137.5q0 -65 -36 -104
t-106 -44q78 -7 118.5 -55.5t40.5 -118.5q0 -100 -61 -153.5t-165 -53.5z" />
    <glyph glyph-name="five.c" horiz-adv-x="626" 
d="M318 -9q-100 0 -156 48t-73 151h57q14 -78 54.5 -113.5t117.5 -35.5q80 0 123.5 48.5t43.5 135.5q0 85 -44 131.5t-126 46.5q-105 0 -152 -62h-51v355h396v-49h-340v-248q59 56 152 56q102 0 162 -59.5t60 -170.5q0 -106 -61.5 -170t-162.5 -64z" />
    <glyph glyph-name="six.c" horiz-adv-x="626" 
d="M548 220q0 -108 -60 -169t-173 -61q-111 0 -171.5 67t-60.5 183v188q0 135 58.5 206t172.5 71q185 0 221 -170h-61q-26 120 -161 120q-90 0 -132 -55t-42 -172v-89q54 96 190 96q100 0 159.5 -57.5t59.5 -157.5zM139 221q0 -85 44 -133t131 -48q89 0 133 45.5t44 128.5
q0 82 -44.5 126.5t-131.5 44.5q-86 0 -131 -43t-45 -121z" />
    <glyph glyph-name="nine.c" horiz-adv-x="626" 
d="M487 475q0 85 -44 132.5t-131 47.5q-89 0 -133 -45.5t-44 -128.5q0 -81 44.5 -125.5t131.5 -44.5q86 0 131 43t45 121zM78 476q0 107 60.5 168t172.5 61q111 0 171.5 -67t60.5 -183v-188q0 -135 -58.5 -206t-172.5 -71q-185 0 -221 171h61q26 -121 161 -121
q90 0 132 55.5t42 171.5v89q-55 -96 -190 -96q-100 0 -159.5 58t-59.5 158z" />
    <glyph glyph-name="question.c" 
d="M272 203h-42l-3 149q91 7 141 29t65.5 52t15.5 80q0 66 -43.5 104t-119.5 38q-82 0 -123.5 -35t-48.5 -110h-56q9 91 66 143t161 52q99 0 159.5 -52t60.5 -140q0 -90 -55 -138.5t-174 -58.5zM252 -6q-23 0 -35.5 14t-12.5 37t12.5 37.5t35.5 14.5q47 0 47 -52
q0 -51 -47 -51z" />
    <glyph glyph-name="C.o" horiz-adv-x="581" 
d="M357 -9q-135 0 -214 90t-79 274q0 176 79.5 263t214.5 87q102 0 166 -43v-59q-67 52 -167 52q-237 0 -237 -300q0 -314 237 -314q98 0 167 52v-57q-65 -45 -167 -45z" />
    <glyph glyph-name="Ccedilla.o" horiz-adv-x="581" 
d="M331 -185q-73 0 -113 52l31 27q25 -41 83 -41q66 0 66 42q0 45 -86 49v49q-115 14 -181.5 104t-66.5 258q0 176 79.5 263t214.5 87q102 0 166 -43v-59q-67 52 -167 52q-237 0 -237 -300q0 -314 237 -314q98 0 167 52v-57q-65 -45 -167 -45h-5v-19q45 -6 70.5 -26
t25.5 -52q0 -39 -34 -59t-83 -20z" />
    <glyph glyph-name="Cacute.o" horiz-adv-x="581" 
d="M256 776q56 76 99 159h81q-60 -84 -134 -159h-46zM357 -9q-135 0 -214 90t-79 274q0 176 79.5 263t214.5 87q102 0 166 -43v-59q-67 52 -167 52q-237 0 -237 -300q0 -314 237 -314q98 0 167 52v-57q-65 -45 -167 -45z" />
    <glyph glyph-name="Ccircumflex.o" horiz-adv-x="581" 
d="M188 788l-25 28q77 60 144 129h45q66 -67 146 -129l-25 -28q-66 40 -144 106q-69 -61 -141 -106zM357 -9q-135 0 -214 90t-79 274q0 176 79.5 263t214.5 87q102 0 166 -43v-59q-67 52 -167 52q-237 0 -237 -300q0 -314 237 -314q98 0 167 52v-57q-65 -45 -167 -45z" />
    <glyph glyph-name="Cdotaccent.o" horiz-adv-x="581" 
d="M330 805q-41 0 -41 41q0 40 41 40q42 0 42 -41q0 -40 -42 -40zM357 -9q-135 0 -214 90t-79 274q0 176 79.5 263t214.5 87q102 0 166 -43v-59q-67 52 -167 52q-237 0 -237 -300q0 -314 237 -314q98 0 167 52v-57q-65 -45 -167 -45z" />
    <glyph glyph-name="Ccaron.o" horiz-adv-x="581" 
d="M309 784q-76 74 -146 129l25 28q75 -48 143 -107q71 63 142 107l25 -28q-82 -63 -144 -129h-45zM357 -9q-135 0 -214 90t-79 274q0 176 79.5 263t214.5 87q102 0 166 -43v-59q-67 52 -167 52q-237 0 -237 -300q0 -314 237 -314q98 0 167 52v-57q-65 -45 -167 -45z" />
    <glyph glyph-name="G.o" horiz-adv-x="637" 
d="M565 45q-35 -24 -93.5 -39t-117.5 -15q-136 0 -213 89.5t-77 275.5q0 176 78 262.5t208 86.5q115 0 190 -54v-58q-79 62 -191 62q-107 0 -168 -71.5t-61 -227.5q0 -168 60 -241.5t174 -73.5q91 0 155 34v230h-197v50h253v-310z" />
    <glyph glyph-name="Gcircumflex.o" horiz-adv-x="637" 
d="M183 788l-25 28q76 60 144 129h45q66 -67 146 -129l-26 -28q-66 41 -143 106q-69 -61 -141 -106zM565 45q-35 -24 -93.5 -39t-117.5 -15q-136 0 -213 89.5t-77 275.5q0 176 78 262.5t208 86.5q115 0 190 -54v-58q-79 62 -191 62q-107 0 -168 -71.5t-61 -227.5
q0 -168 60 -241.5t174 -73.5q91 0 155 34v230h-197v50h253v-310z" />
    <glyph glyph-name="Gbreve.o" horiz-adv-x="637" 
d="M325 788q-73 0 -115.5 38t-43.5 117h46q1 -61 29 -88.5t84 -27.5t84 27.5t29 88.5h47q-1 -79 -43.5 -117t-116.5 -38zM565 45q-35 -24 -93.5 -39t-117.5 -15q-136 0 -213 89.5t-77 275.5q0 176 78 262.5t208 86.5q115 0 190 -54v-58q-79 62 -191 62q-107 0 -168 -71.5
t-61 -227.5q0 -168 60 -241.5t174 -73.5q91 0 155 34v230h-197v50h253v-310z" />
    <glyph glyph-name="Gdotaccent.o" horiz-adv-x="637" 
d="M325 805q-41 0 -41 41q0 40 41 40q42 0 42 -41q0 -40 -42 -40zM565 45q-35 -24 -93.5 -39t-117.5 -15q-136 0 -213 89.5t-77 275.5q0 176 78 262.5t208 86.5q115 0 190 -54v-58q-79 62 -191 62q-107 0 -168 -71.5t-61 -227.5q0 -168 60 -241.5t174 -73.5q91 0 155 34v230
h-197v50h253v-310z" />
    <glyph glyph-name="Gcommaaccent.o" horiz-adv-x="637" 
d="M565 45q-35 -24 -93.5 -39t-117.5 -15q-136 0 -213 89.5t-77 275.5q0 176 78 262.5t208 86.5q115 0 190 -54v-58q-79 62 -191 62q-107 0 -168 -71.5t-61 -227.5q0 -168 60 -241.5t174 -73.5q91 0 155 34v230h-197v50h253v-310zM249 -236q40 90 58 158h79
q-37 -79 -94 -158h-43z" />
    <glyph glyph-name="J.o" horiz-adv-x="478" 
d="M179 -9q-92 0 -157 48v59q75 -57 159 -57q76 0 115 46.5t39 123.5v485h56v-484q0 -100 -55.5 -160.5t-156.5 -60.5z" />
    <glyph glyph-name="Jcircumflex.o" horiz-adv-x="478" 
d="M213 788l-25 28q78 60 144 129h45q67 -67 146 -129l-25 -28q-68 42 -143 106q-73 -62 -142 -106zM179 -9q-92 0 -157 48v59q75 -57 159 -57q76 0 115 46.5t39 123.5v485h56v-484q0 -100 -55.5 -160.5t-156.5 -60.5z" />
    <glyph glyph-name="Q.o" horiz-adv-x="650" 
d="M561 -167q-119 -24 -183 16t-68 142q-115 6 -180.5 95t-65.5 270q0 177 70.5 263t192.5 86q120 0 189.5 -86t69.5 -263q0 -172 -58.5 -261t-162.5 -102q5 -77 49 -103t147 -7v-50zM326 41q99 0 151.5 73t52.5 242q0 299 -204 299q-206 0 -206 -299q0 -169 53.5 -242
t152.5 -73z" />
    <glyph glyph-name="S.o" horiz-adv-x="574" 
d="M280 -6q-136 0 -208 49v63q84 -63 208 -63q84 0 134.5 34.5t50.5 98.5q0 62 -41.5 95.5t-149.5 57.5q-107 25 -155.5 69t-48.5 122q0 82 60 131.5t159 49.5q119 0 182 -47v-59q-82 56 -183 56q-75 0 -118.5 -32.5t-43.5 -94.5q0 -58 37 -90t136 -55q117 -25 168.5 -71.5
t51.5 -128.5q0 -83 -66.5 -134t-172.5 -51z" />
    <glyph glyph-name="Sacute.o" horiz-adv-x="574" 
d="M245 776q57 79 98 159h82q-56 -77 -134 -159h-46zM280 -6q-136 0 -208 49v63q84 -63 208 -63q84 0 134.5 34.5t50.5 98.5q0 62 -41.5 95.5t-149.5 57.5q-107 25 -155.5 69t-48.5 122q0 82 60 131.5t159 49.5q119 0 182 -47v-59q-82 56 -183 56q-75 0 -118.5 -32.5
t-43.5 -94.5q0 -58 37 -90t136 -55q117 -25 168.5 -71.5t51.5 -128.5q0 -83 -66.5 -134t-172.5 -51z" />
    <glyph glyph-name="Scircumflex.o" horiz-adv-x="574" 
d="M167 788l-26 28q76 58 145 129h44q69 -69 147 -129l-26 -28q-62 38 -143 106q-71 -62 -141 -106zM280 -6q-136 0 -208 49v63q84 -63 208 -63q84 0 134.5 34.5t50.5 98.5q0 62 -41.5 95.5t-149.5 57.5q-107 25 -155.5 69t-48.5 122q0 82 60 131.5t159 49.5q119 0 182 -47
v-59q-82 56 -183 56q-75 0 -118.5 -32.5t-43.5 -94.5q0 -58 37 -90t136 -55q117 -25 168.5 -71.5t51.5 -128.5q0 -83 -66.5 -134t-172.5 -51z" />
    <glyph glyph-name="Scedilla.o" horiz-adv-x="574" 
d="M310 -185q-73 0 -113 52l31 27q25 -41 83 -41q66 0 66 42q0 45 -86 49v50h-11q-136 0 -208 49v63q84 -63 208 -63q84 0 134.5 34.5t50.5 98.5q0 62 -41.5 95.5t-149.5 57.5q-107 25 -155.5 69t-48.5 122q0 82 60 131.5t159 49.5q119 0 182 -47v-59q-82 56 -183 56
q-75 0 -118.5 -32.5t-43.5 -94.5q0 -58 37 -90t136 -55q117 -25 168.5 -71.5t51.5 -128.5q0 -72 -51.5 -121t-137.5 -61v-25q45 -6 71 -26.5t26 -51.5q0 -39 -34 -59t-83 -20z" />
    <glyph glyph-name="Scaron.o" horiz-adv-x="574" 
d="M277 784q-74 74 -146 129l26 28q73 -48 143 -107q68 62 141 107l25 -28q-81 -63 -144 -129h-45zM280 -6q-136 0 -208 49v63q84 -63 208 -63q84 0 134.5 34.5t50.5 98.5q0 62 -41.5 95.5t-149.5 57.5q-107 25 -155.5 69t-48.5 122q0 82 60 131.5t159 49.5q119 0 182 -47
v-59q-82 56 -183 56q-75 0 -118.5 -32.5t-43.5 -94.5q0 -58 37 -90t136 -55q117 -25 168.5 -71.5t51.5 -128.5q0 -83 -66.5 -134t-172.5 -51z" />
    <glyph glyph-name="Scommaaccent.o" horiz-adv-x="574" 
d="M280 -6q-136 0 -208 49v63q84 -63 208 -63q84 0 134.5 34.5t50.5 98.5q0 62 -41.5 95.5t-149.5 57.5q-107 25 -155.5 69t-48.5 122q0 82 60 131.5t159 49.5q119 0 182 -47v-59q-82 56 -183 56q-75 0 -118.5 -32.5t-43.5 -94.5q0 -58 37 -90t136 -55q117 -25 168.5 -71.5
t51.5 -128.5q0 -83 -66.5 -134t-172.5 -51zM215 -236q37 81 58 158h80q-43 -87 -95 -158h-43z" />
    <glyph glyph-name="IJ.o" horiz-adv-x="936" 
d="M47 0v49h139v598h-139v49h334v-49h-139v-598h139v-49h-334zM641 -9q-93 0 -156 48v59q74 -57 158 -57q76 0 115.5 46.5t39.5 123.5v485h56v-484q0 -100 -56 -160.5t-157 -60.5z" />
    <glyph glyph-name="a.o" horiz-adv-x="525" 
d="M220 38q83 0 145 72v142h-135q-53 0 -88.5 -27.5t-35.5 -82.5q0 -50 30.5 -77t83.5 -27zM498 -1q-48 -11 -82 10.5t-35 64.5q-33 -38 -79.5 -61t-94.5 -23q-66 0 -111 38.5t-45 104.5q0 78 49 121.5t128 43.5h137v61q0 56 -33.5 90.5t-95.5 34.5q-46 0 -78 -12.5
t-67 -39.5v55q58 45 146 45q84 0 133.5 -43.5t49.5 -120.5v-260q0 -40 20.5 -55.5t57.5 -3.5v-50z" />
    <glyph glyph-name="agrave.o" horiz-adv-x="525" 
d="M254 603q-76 76 -135 158h77q43 -82 99 -158h-41zM220 38q83 0 145 72v142h-135q-53 0 -88.5 -27.5t-35.5 -82.5q0 -50 30.5 -77t83.5 -27zM498 -1q-48 -11 -82 10.5t-35 64.5q-33 -38 -79.5 -61t-94.5 -23q-66 0 -111 38.5t-45 104.5q0 78 49 121.5t128 43.5h137v61
q0 56 -33.5 90.5t-95.5 34.5q-46 0 -78 -12.5t-67 -39.5v55q58 45 146 45q84 0 133.5 -43.5t49.5 -120.5v-260q0 -40 20.5 -55.5t57.5 -3.5v-50z" />
    <glyph glyph-name="aacute.o" horiz-adv-x="525" 
d="M189 603q55 74 99 158h81q-61 -86 -134 -158h-46zM220 38q83 0 145 72v142h-135q-53 0 -88.5 -27.5t-35.5 -82.5q0 -50 30.5 -77t83.5 -27zM498 -1q-48 -11 -82 10.5t-35 64.5q-33 -38 -79.5 -61t-94.5 -23q-66 0 -111 38.5t-45 104.5q0 78 49 121.5t128 43.5h137v61
q0 56 -33.5 90.5t-95.5 34.5q-46 0 -78 -12.5t-67 -39.5v55q58 45 146 45q84 0 133.5 -43.5t49.5 -120.5v-260q0 -40 20.5 -55.5t57.5 -3.5v-50z" />
    <glyph glyph-name="acircumflex.o" horiz-adv-x="525" 
d="M110 614l-26 28q69 53 145 129h44q76 -75 147 -129l-26 -28q-65 40 -143 107q-72 -64 -141 -107zM220 38q83 0 145 72v142h-135q-53 0 -88.5 -27.5t-35.5 -82.5q0 -50 30.5 -77t83.5 -27zM498 -1q-48 -11 -82 10.5t-35 64.5q-33 -38 -79.5 -61t-94.5 -23q-66 0 -111 38.5
t-45 104.5q0 78 49 121.5t128 43.5h137v61q0 56 -33.5 90.5t-95.5 34.5q-46 0 -78 -12.5t-67 -39.5v55q58 45 146 45q84 0 133.5 -43.5t49.5 -120.5v-260q0 -40 20.5 -55.5t57.5 -3.5v-50z" />
    <glyph glyph-name="atilde.o" horiz-adv-x="525" 
d="M317 616q-44 0 -80 60q-2 3 -9 13t-9.5 14t-8.5 11t-10.5 10t-10 5.5t-11.5 2.5q-46 0 -46 -97v-10h-48v13q0 63 26 101.5t72 38.5q29 0 46 -15t35 -43q11 -18 18 -28t18 -19.5t22 -9.5q45 0 45 96v10h48v-13q0 -63 -25.5 -101.5t-71.5 -38.5zM220 38q83 0 145 72v142
h-135q-53 0 -88.5 -27.5t-35.5 -82.5q0 -50 30.5 -77t83.5 -27zM498 -1q-48 -11 -82 10.5t-35 64.5q-33 -38 -79.5 -61t-94.5 -23q-66 0 -111 38.5t-45 104.5q0 78 49 121.5t128 43.5h137v61q0 56 -33.5 90.5t-95.5 34.5q-46 0 -78 -12.5t-67 -39.5v55q58 45 146 45
q84 0 133.5 -43.5t49.5 -120.5v-260q0 -40 20.5 -55.5t57.5 -3.5v-50z" />
    <glyph glyph-name="adieresis.o" horiz-adv-x="525" 
d="M331 631q-41 0 -41 41q0 40 41 40q42 0 42 -41q0 -40 -42 -40zM175 631q-42 0 -42 41q0 40 42 40q41 0 41 -41q0 -40 -41 -40zM220 38q83 0 145 72v142h-135q-53 0 -88.5 -27.5t-35.5 -82.5q0 -50 30.5 -77t83.5 -27zM498 -1q-48 -11 -82 10.5t-35 64.5
q-33 -38 -79.5 -61t-94.5 -23q-66 0 -111 38.5t-45 104.5q0 78 49 121.5t128 43.5h137v61q0 56 -33.5 90.5t-95.5 34.5q-46 0 -78 -12.5t-67 -39.5v55q58 45 146 45q84 0 133.5 -43.5t49.5 -120.5v-260q0 -40 20.5 -55.5t57.5 -3.5v-50z" />
    <glyph glyph-name="aring.o" horiz-adv-x="525" 
d="M243 603q-54 0 -85 31t-31 90t31.5 91.5t84.5 32.5t84.5 -32.5t31.5 -91.5t-31 -90t-85 -31zM243 640q74 0 74 84q0 41 -19 63.5t-55 22.5t-55 -22.5t-19 -63.5q0 -84 74 -84zM220 38q83 0 145 72v142h-135q-53 0 -88.5 -27.5t-35.5 -82.5q0 -50 30.5 -77t83.5 -27z
M498 -1q-48 -11 -82 10.5t-35 64.5q-33 -38 -79.5 -61t-94.5 -23q-66 0 -111 38.5t-45 104.5q0 78 49 121.5t128 43.5h137v61q0 56 -33.5 90.5t-95.5 34.5q-46 0 -78 -12.5t-67 -39.5v55q58 45 146 45q84 0 133.5 -43.5t49.5 -120.5v-260q0 -40 20.5 -55.5t57.5 -3.5v-50z
" />
    <glyph glyph-name="amacron.o" horiz-adv-x="525" 
d="M118 660v45h291v-45h-291zM220 38q83 0 145 72v142h-135q-53 0 -88.5 -27.5t-35.5 -82.5q0 -50 30.5 -77t83.5 -27zM498 -1q-48 -11 -82 10.5t-35 64.5q-33 -38 -79.5 -61t-94.5 -23q-66 0 -111 38.5t-45 104.5q0 78 49 121.5t128 43.5h137v61q0 56 -33.5 90.5
t-95.5 34.5q-46 0 -78 -12.5t-67 -39.5v55q58 45 146 45q84 0 133.5 -43.5t49.5 -120.5v-260q0 -40 20.5 -55.5t57.5 -3.5v-50z" />
    <glyph glyph-name="abreve.o" horiz-adv-x="525" 
d="M263 614q-73 0 -115.5 38t-43.5 117h46q1 -61 29 -88.5t84 -27.5t84 27.5t29 88.5h47q-1 -79 -43.5 -117t-116.5 -38zM220 38q83 0 145 72v142h-135q-53 0 -88.5 -27.5t-35.5 -82.5q0 -50 30.5 -77t83.5 -27zM498 -1q-48 -11 -82 10.5t-35 64.5q-33 -38 -79.5 -61
t-94.5 -23q-66 0 -111 38.5t-45 104.5q0 78 49 121.5t128 43.5h137v61q0 56 -33.5 90.5t-95.5 34.5q-46 0 -78 -12.5t-67 -39.5v55q58 45 146 45q84 0 133.5 -43.5t49.5 -120.5v-260q0 -40 20.5 -55.5t57.5 -3.5v-50z" />
    <glyph glyph-name="aogonek.o" horiz-adv-x="525" 
d="M220 38q83 0 145 72v142h-135q-53 0 -88.5 -27.5t-35.5 -82.5q0 -50 30.5 -77t83.5 -27zM541 -177q-42 -8 -75 -8q-50 0 -81.5 24t-31.5 64q0 64 61 109q-31 22 -33 62q-33 -38 -79.5 -61t-94.5 -23q-66 0 -111 38.5t-45 104.5q0 78 49 121.5t128 43.5h137v61
q0 56 -33.5 90.5t-95.5 34.5q-46 0 -78 -12.5t-67 -39.5v55q58 45 146 45q84 0 133.5 -43.5t49.5 -120.5v-260q0 -40 20.5 -55.5t57.5 -3.5v-50q-28 -7 -57 0q-46 -37 -46 -82q0 -28 21.5 -43.5t57.5 -15.5q34 0 66 9z" />
    <glyph glyph-name="aringacute.o" horiz-adv-x="525" 
d="M221 864q63 89 98 158h81q-53 -75 -134 -158h-45zM248 603q-54 0 -85 31t-31 90t31.5 91.5t84.5 32.5t84.5 -32.5t31.5 -91.5t-31 -90t-85 -31zM248 640q74 0 74 84q0 41 -19 63.5t-55 22.5t-55 -22.5t-19 -63.5q0 -84 74 -84zM220 38q83 0 145 72v142h-135
q-53 0 -88.5 -27.5t-35.5 -82.5q0 -50 30.5 -77t83.5 -27zM498 -1q-48 -11 -82 10.5t-35 64.5q-33 -38 -79.5 -61t-94.5 -23q-66 0 -111 38.5t-45 104.5q0 78 49 121.5t128 43.5h137v61q0 56 -33.5 90.5t-95.5 34.5q-46 0 -78 -12.5t-67 -39.5v55q58 45 146 45
q84 0 133.5 -43.5t49.5 -120.5v-260q0 -40 20.5 -55.5t57.5 -3.5v-50z" />
    <glyph glyph-name="c.o" horiz-adv-x="484" 
d="M122 261q0 -112 48 -166t131 -54q66 0 127 44v-59q-55 -35 -134 -35q-101 0 -165 69t-64 201q0 131 64 201t165 70q80 0 134 -37v-58q-61 45 -127 45q-83 0 -131 -54.5t-48 -166.5z" />
    <glyph glyph-name="ccedilla.o" horiz-adv-x="484" 
d="M270 -185q-74 0 -112 52l30 27q25 -41 83 -41q66 0 66 42q0 45 -86 49v50q-84 14 -135 82t-51 185q0 131 64 201t165 70q80 0 134 -37v-58q-61 45 -127 45q-83 0 -131 -54.5t-48 -166.5t48 -166t131 -54q66 0 127 44v-59q-55 -35 -134 -35h-3v-19q45 -6 70.5 -26
t25.5 -52q0 -39 -34 -59t-83 -20z" />
    <glyph glyph-name="cacute.o" horiz-adv-x="484" 
d="M215 603q59 80 99 158h81q-56 -80 -134 -158h-46zM122 261q0 -112 48 -166t131 -54q66 0 127 44v-59q-55 -35 -134 -35q-101 0 -165 69t-64 201q0 131 64 201t165 70q80 0 134 -37v-58q-61 45 -127 45q-83 0 -131 -54.5t-48 -166.5z" />
    <glyph glyph-name="ccircumflex.o" horiz-adv-x="484" 
d="M125 614l-25 28q70 55 144 129h45q72 -72 146 -129l-25 -28q-69 42 -144 107q-67 -60 -141 -107zM122 261q0 -112 48 -166t131 -54q66 0 127 44v-59q-55 -35 -134 -35q-101 0 -165 69t-64 201q0 131 64 201t165 70q80 0 134 -37v-58q-61 45 -127 45q-83 0 -131 -54.5
t-48 -166.5z" />
    <glyph glyph-name="cdotaccent.o" horiz-adv-x="484" 
d="M257 631q-42 0 -42 41q0 40 42 40t42 -41q0 -40 -42 -40zM122 261q0 -112 48 -166t131 -54q66 0 127 44v-59q-55 -35 -134 -35q-101 0 -165 69t-64 201q0 131 64 201t165 70q80 0 134 -37v-58q-61 45 -127 45q-83 0 -131 -54.5t-48 -166.5z" />
    <glyph glyph-name="ccaron.o" horiz-adv-x="484" 
d="M236 610q-70 70 -147 129l26 28q65 -42 143 -106q73 63 141 106l26 -28q-85 -65 -145 -129h-44zM122 261q0 -112 48 -166t131 -54q66 0 127 44v-59q-55 -35 -134 -35q-101 0 -165 69t-64 201q0 131 64 201t165 70q80 0 134 -37v-58q-61 45 -127 45q-83 0 -131 -54.5
t-48 -166.5z" />
    <glyph glyph-name="e.o" horiz-adv-x="533" 
d="M276 484q-140 0 -153 -184h293v4q-1 90 -39 135t-101 45zM442 25q-68 -34 -145 -34q-232 2 -232 272q0 133 56.5 201t155.5 68q84 0 139.5 -62t55.5 -172v-45h-350q2 -111 45 -161.5t130 -50.5q85 0 145 44v-60z" />
    <glyph glyph-name="egrave.o" horiz-adv-x="533" 
d="M287 603q-80 80 -136 158h78q37 -72 98 -158h-40zM276 484q-140 0 -153 -184h293v4q-1 90 -39 135t-101 45zM442 25q-68 -34 -145 -34q-232 2 -232 272q0 133 56.5 201t155.5 68q84 0 139.5 -62t55.5 -172v-45h-350q2 -111 45 -161.5t130 -50.5q85 0 145 44v-60z" />
    <glyph glyph-name="eacute.o" horiz-adv-x="533" 
d="M206 603q55 74 99 158h81q-56 -80 -134 -158h-46zM276 484q-140 0 -153 -184h293v4q-1 90 -39 135t-101 45zM442 25q-68 -34 -145 -34q-232 2 -232 272q0 133 56.5 201t155.5 68q84 0 139.5 -62t55.5 -172v-45h-350q2 -111 45 -161.5t130 -50.5q85 0 145 44v-60z" />
    <glyph glyph-name="ecircumflex.o" horiz-adv-x="533" 
d="M125 614l-25 28q70 55 144 129h45q72 -72 146 -129l-25 -28q-69 42 -144 107q-67 -60 -141 -107zM276 484q-140 0 -153 -184h293v4q-1 90 -39 135t-101 45zM442 25q-68 -34 -145 -34q-232 2 -232 272q0 133 56.5 201t155.5 68q84 0 139.5 -62t55.5 -172v-45h-350
q2 -111 45 -161.5t130 -50.5q85 0 145 44v-60z" />
    <glyph glyph-name="edieresis.o" horiz-adv-x="533" 
d="M346 631q-42 0 -42 41q0 40 42 40q41 0 41 -41q0 -40 -41 -40zM189 631q-42 0 -42 41q0 40 42 40t42 -41q0 -40 -42 -40zM276 484q-140 0 -153 -184h293v4q-1 90 -39 135t-101 45zM442 25q-68 -34 -145 -34q-232 2 -232 272q0 133 56.5 201t155.5 68q84 0 139.5 -62
t55.5 -172v-45h-350q2 -111 45 -161.5t130 -50.5q85 0 145 44v-60z" />
    <glyph glyph-name="emacron.o" horiz-adv-x="533" 
d="M122 659v45h291v-45h-291zM276 484q-140 0 -153 -184h293v4q-1 90 -39 135t-101 45zM442 25q-68 -34 -145 -34q-232 2 -232 272q0 133 56.5 201t155.5 68q84 0 139.5 -62t55.5 -172v-45h-350q2 -111 45 -161.5t130 -50.5q85 0 145 44v-60z" />
    <glyph glyph-name="ebreve.o" horiz-adv-x="533" 
d="M267 614q-73 0 -115.5 38t-43.5 117h46q1 -61 29 -88.5t84 -27.5t84 27.5t29 88.5h47q-1 -79 -43.5 -117t-116.5 -38zM276 484q-140 0 -153 -184h293v4q-1 90 -39 135t-101 45zM442 25q-68 -34 -145 -34q-232 2 -232 272q0 133 56.5 201t155.5 68q84 0 139.5 -62
t55.5 -172v-45h-350q2 -111 45 -161.5t130 -50.5q85 0 145 44v-60z" />
    <glyph glyph-name="edotaccent.o" horiz-adv-x="533" 
d="M267 631q-41 0 -41 41q0 40 41 40q42 0 42 -41q0 -40 -42 -40zM276 484q-140 0 -153 -184h293v4q-1 90 -39 135t-101 45zM442 25q-68 -34 -145 -34q-232 2 -232 272q0 133 56.5 201t155.5 68q84 0 139.5 -62t55.5 -172v-45h-350q2 -111 45 -161.5t130 -50.5q85 0 145 44
v-60z" />
    <glyph glyph-name="eogonek.o" horiz-adv-x="533" 
d="M276 484q-140 0 -153 -184h293v4q-1 90 -39 135t-101 45zM465 -177q-40 -8 -74 -8q-50 0 -82 24t-32 64q0 49 39 88h-19q-232 2 -232 272q0 133 56.5 201t155.5 68q84 0 139.5 -62t55.5 -172v-45h-350q2 -111 45 -161.5t130 -50.5q85 0 145 44v-60q-36 -18 -77 -27
q-45 -36 -45 -81q0 -27 21 -43t57 -16q35 0 66 9z" />
    <glyph glyph-name="ecaron.o" horiz-adv-x="533" 
d="M244 610q-69 69 -146 129l25 28q72 -46 143 -106q74 64 142 106l25 -28q-86 -66 -144 -129h-45zM276 484q-140 0 -153 -184h293v4q-1 90 -39 135t-101 45zM442 25q-68 -34 -145 -34q-232 2 -232 272q0 133 56.5 201t155.5 68q84 0 139.5 -62t55.5 -172v-45h-350
q2 -111 45 -161.5t130 -50.5q85 0 145 44v-60z" />
    <glyph glyph-name="f.o" horiz-adv-x="394" 
d="M147 0v473h-109v49h109v49q0 47 19 80t49.5 47t68 16.5t74.5 -12.5v-47q-25 10 -51 11.5t-50 -5.5t-39 -30t-15 -59v-50h155v-49h-155v-473h-56z" />
    <glyph glyph-name="j.o" horiz-adv-x="269" 
d="M141 631q-41 0 -41 41q0 40 41 40q42 0 42 -41q0 -40 -42 -40zM29 -181q-30 0 -67 10v54q33 -13 63 -13q88 0 88 93v559h56v-557q0 -72 -39 -109t-101 -37z" />
    <glyph glyph-name="r.o" horiz-adv-x="388" 
d="M150 0h-55v522h55v-94q60 102 159 102q38 0 58 -10v-54q-24 14 -62 14q-46 0 -86.5 -26.5t-68.5 -74.5v-379z" />
    <glyph glyph-name="racute.o" horiz-adv-x="388" 
d="M179 603q60 83 98 158h82q-57 -80 -134 -158h-46zM150 0h-55v522h55v-94q60 102 159 102q38 0 58 -10v-54q-24 14 -62 14q-46 0 -86.5 -26.5t-68.5 -74.5v-379z" />
    <glyph glyph-name="rcommaaccent.o" horiz-adv-x="388" 
d="M150 0h-55v522h55v-94q60 102 159 102q38 0 58 -10v-54q-24 14 -62 14q-46 0 -86.5 -26.5t-68.5 -74.5v-379zM33 -236q37 84 57 158h80q-43 -87 -95 -158h-42z" />
    <glyph glyph-name="rcaron.o" horiz-adv-x="388" 
d="M199 610q-74 74 -146 129l25 28q70 -45 144 -106q70 62 141 106l25 -28q-81 -62 -144 -129h-45zM150 0h-55v522h55v-94q60 102 159 102q38 0 58 -10v-54q-24 14 -62 14q-46 0 -86.5 -26.5t-68.5 -74.5v-379z" />
    <glyph glyph-name="s.o" horiz-adv-x="480" 
d="M232 -9q-101 0 -170 38v61q66 -49 170 -49q61 0 101.5 22.5t40.5 69.5q0 44 -30 64t-107 38q-94 20 -135.5 53t-41.5 99q0 67 51.5 106t128.5 39q83 0 146 -35v-59q-61 44 -146 44q-54 0 -90 -23.5t-36 -68.5q0 -44 30 -65t109 -37q92 -21 134 -53.5t42 -98.5
q0 -68 -57 -106.5t-140 -38.5z" />
    <glyph glyph-name="sacute.o" horiz-adv-x="480" 
d="M184 603q55 74 99 158h81q-57 -80 -134 -158h-46zM232 -9q-101 0 -170 38v61q66 -49 170 -49q61 0 101.5 22.5t40.5 69.5q0 44 -30 64t-107 38q-94 20 -135.5 53t-41.5 99q0 67 51.5 106t128.5 39q83 0 146 -35v-59q-61 44 -146 44q-54 0 -90 -23.5t-36 -68.5
q0 -44 30 -65t109 -37q92 -21 134 -53.5t42 -98.5q0 -68 -57 -106.5t-140 -38.5z" />
    <glyph glyph-name="scircumflex.o" horiz-adv-x="480" 
d="M96 614l-26 28q72 55 144 129h45q75 -73 146 -129l-25 -28q-65 40 -143 107q-69 -61 -141 -107zM232 -9q-101 0 -170 38v61q66 -49 170 -49q61 0 101.5 22.5t40.5 69.5q0 44 -30 64t-107 38q-94 20 -135.5 53t-41.5 99q0 67 51.5 106t128.5 39q83 0 146 -35v-59
q-61 44 -146 44q-54 0 -90 -23.5t-36 -68.5q0 -44 30 -65t109 -37q92 -21 134 -53.5t42 -98.5q0 -68 -57 -106.5t-140 -38.5z" />
    <glyph glyph-name="scedilla.o" horiz-adv-x="480" 
d="M259 -185q-73 0 -113 52l31 27q25 -41 83 -41q66 0 66 42q0 45 -86 49v47h-8q-101 0 -170 38v61q66 -49 170 -49q61 0 101.5 22.5t40.5 69.5q0 44 -30 64t-107 38q-94 20 -135.5 53t-41.5 99q0 67 51.5 106t128.5 39q83 0 146 -35v-59q-61 44 -146 44q-54 0 -90 -23.5
t-36 -68.5q0 -44 30 -65t109 -37q92 -21 134 -53.5t42 -98.5q0 -58 -41.5 -95t-108.5 -47v-22q45 -6 71 -26.5t26 -51.5q0 -39 -34 -59t-83 -20z" />
    <glyph glyph-name="scaron.o" horiz-adv-x="480" 
d="M216 610q-68 69 -146 129l26 28q70 -46 143 -106q76 66 141 106l25 -28q-86 -67 -144 -129h-45zM232 -9q-101 0 -170 38v61q66 -49 170 -49q61 0 101.5 22.5t40.5 69.5q0 44 -30 64t-107 38q-94 20 -135.5 53t-41.5 99q0 67 51.5 106t128.5 39q83 0 146 -35v-59
q-61 44 -146 44q-54 0 -90 -23.5t-36 -68.5q0 -44 30 -65t109 -37q92 -21 134 -53.5t42 -98.5q0 -68 -57 -106.5t-140 -38.5z" />
    <glyph glyph-name="scommaaccent.o" horiz-adv-x="480" 
d="M232 -9q-101 0 -170 38v61q66 -49 170 -49q61 0 101.5 22.5t40.5 69.5q0 44 -30 64t-107 38q-94 20 -135.5 53t-41.5 99q0 67 51.5 106t128.5 39q83 0 146 -35v-59q-61 44 -146 44q-54 0 -90 -23.5t-36 -68.5q0 -44 30 -65t109 -37q92 -21 134 -53.5t42 -98.5
q0 -68 -57 -106.5t-140 -38.5zM151 -236q37 81 58 158h80q-43 -87 -95 -158h-43z" />
    <glyph glyph-name="t.o" horiz-adv-x="405" 
d="M275 -8q-68 0 -104 43t-36 126v312h-107v49h107v144h56v-144h171v-49h-171v-315q0 -58 23.5 -86.5t64.5 -28.5q44 0 83 16v-49q-44 -18 -87 -18z" />
    <glyph glyph-name="tcedilla.o" horiz-adv-x="405" 
d="M255 -185q-73 0 -113 52l31 27q25 -41 83 -41q66 0 66 42q0 45 -86 49v52q-101 23 -101 165v312h-107v49h107v144h56v-144h171v-49h-171v-315q0 -58 23.5 -86.5t64.5 -28.5q44 0 83 16v-49q-44 -18 -87 -18v-20q45 -6 71 -26.5t26 -51.5q0 -39 -34 -59t-83 -20z" />
    <glyph glyph-name="tcaron.o" horiz-adv-x="405" 
d="M296 625q32 99 40 185h60q-16 -105 -62 -185h-38zM275 -8q-68 0 -104 43t-36 126v312h-107v49h107v144h56v-144h171v-49h-171v-315q0 -58 23.5 -86.5t64.5 -28.5q44 0 83 16v-49q-44 -18 -87 -18z" />
    <glyph glyph-name="tcommaaccent.o" horiz-adv-x="405" 
d="M275 -8q-68 0 -104 43t-36 126v312h-107v49h107v144h56v-144h171v-49h-171v-315q0 -58 23.5 -86.5t64.5 -28.5q44 0 83 16v-49q-44 -18 -87 -18zM157 -236q37 84 57 158h80q-43 -87 -95 -158h-42z" />
    <glyph glyph-name="y.o" horiz-adv-x="497" 
d="M103 -180q-25 0 -55 8v50q27 -8 58 -8q78 0 112 108l6 16l-184 528h59l153 -457l151 457h57l-201 -571q-45 -131 -156 -131z" />
    <glyph glyph-name="yacute.o" horiz-adv-x="497" 
d="M174 603q60 83 98 158h82q-57 -80 -134 -158h-46zM103 -180q-25 0 -55 8v50q27 -8 58 -8q78 0 112 108l6 16l-184 528h59l153 -457l151 457h57l-201 -571q-45 -131 -156 -131z" />
    <glyph glyph-name="ydieresis.o" horiz-adv-x="497" 
d="M326 631q-41 0 -41 41q0 40 41 40q42 0 42 -41q0 -40 -42 -40zM170 631q-42 0 -42 41q0 40 42 40q41 0 41 -41q0 -40 -41 -40zM103 -180q-25 0 -55 8v50q27 -8 58 -8q78 0 112 108l6 16l-184 528h59l153 -457l151 457h57l-201 -571q-45 -131 -156 -131z" />
    <glyph glyph-name="ycircumflex.o" horiz-adv-x="497" 
d="M106 614l-26 28q69 53 145 129h44q76 -75 147 -129l-26 -28q-65 40 -143 107q-72 -64 -141 -107zM103 -180q-25 0 -55 8v50q27 -8 58 -8q78 0 112 108l6 16l-184 528h59l153 -457l151 457h57l-201 -571q-45 -131 -156 -131z" />
    <glyph glyph-name="ygrave.o" horiz-adv-x="497" 
d="M267 603q-76 76 -135 158h77q43 -82 99 -158h-41zM103 -180q-25 0 -55 8v50q27 -8 58 -8q78 0 112 108l6 16l-184 528h59l153 -457l151 457h57l-201 -571q-45 -131 -156 -131z" />
    <glyph glyph-name="two.o" horiz-adv-x="626" 
d="M103 0v100q0 92 51 148.5t150 98.5q103 45 137 79.5t34 90.5q0 65 -51 101.5t-139 36.5q-91 0 -168 -28v53q83 25 167 25q112 0 179 -50.5t67 -137.5q0 -71 -46.5 -120t-152.5 -96q-96 -43 -134 -87.5t-38 -113.5v-50h379v-50h-435z" />
    <glyph glyph-name="three.o" horiz-adv-x="626" 
d="M256 -9q-103 0 -184 35v54q84 -40 184 -40q103 0 161.5 39t58.5 119q0 76 -41 112t-142 36h-97v49h99q91 0 128 29.5t37 95.5q0 69 -56.5 103t-146.5 34q-104 0 -173 -42v56q72 34 173 34q111 0 185 -47.5t74 -137.5q0 -64 -38.5 -103.5t-111.5 -44.5q82 -8 124.5 -56
t42.5 -118q0 -100 -75 -153.5t-202 -53.5z" />
    <glyph glyph-name="five.o" horiz-adv-x="626" 
d="M279 -10q-91 0 -168 34v54q84 -38 168 -38q100 0 155 44t55 126q0 85 -47 128.5t-125 43.5h-204v314h403v-49h-347v-213h153q98 0 161 -56.5t63 -167.5q0 -101 -73.5 -160.5t-193.5 -59.5z" />
    <glyph glyph-name="six.o" horiz-adv-x="626" 
d="M374 705q86 0 142 -27v-53q-65 30 -142 30q-115 0 -176 -67t-61 -187v-62q54 96 190 96q100 0 159 -57.5t59 -157.5q0 -108 -60 -169t-172 -61q-111 0 -171.5 67t-60.5 183v161q0 138 78 221t215 83zM137 221q0 -85 44 -133t131 -48q89 0 133 45.5t44 128.5
q0 82 -44.5 126.5t-131.5 44.5q-86 0 -131 -43t-45 -121z" />
    <glyph glyph-name="nine.o" horiz-adv-x="626" 
d="M487 475q0 85 -44 132.5t-131 47.5q-89 0 -133 -45.5t-44 -128.5q0 -81 44.5 -125.5t131.5 -44.5q86 0 131 43t45 121zM250 -10q-86 0 -143 27v54q65 -31 143 -31q114 0 175.5 67.5t61.5 186.5v62q-55 -96 -190 -96q-100 0 -159.5 58t-59.5 158q0 107 60.5 168t172.5 61
q111 0 171.5 -67t60.5 -183v-161q0 -138 -78 -221t-215 -83z" />
    <glyph glyph-name="question.o" horiz-adv-x="513" 
d="M229 655q-96 0 -163 -41v56q60 35 162 35t162.5 -52t60.5 -142q0 -177 -228 -195l-5 -113h-41l-4 149q128 10 175 48t47 111q0 66 -44 105t-122 39zM198 -6q-23 0 -35.5 14t-12.5 37t12.5 37.5t35.5 14.5q47 0 47 -52q0 -51 -47 -51z" />
    </font>
</defs>
</svg>
